Начать новую тему Ответить на тему
Статистика раздачи
Размер: 748.29 МБ | Добавлен: 26 июн 2020, 17:16 | Скачали: 0
Сидеров: 0  [0 байт/сек]    Личеров: 0  [0 байт/сек]
Пред. тема | След. тема 

Автор
Сообщение

СообщениеДобавлено: 26 июн 2020, 17:16 

Ответить с цитатой 

Helalyn Flowers - Stitches Of Eden [Limited Edition]
Жанр: electro rock wave
Год выпуска диска: 2010
Производитель диска: (Alfa Matrix, Belgium)
Аудио кодек: FLAC
Тип рипа: image+.cue
Битрейт аудио: lossless
Продолжительность Disc1: 42:20.16;
Продолжительность Disc2: 52:05.60
Треклист:
Disc1 - Stitches Of Eden
01. Sitting On The Moon [4:55]
02. Your Killer Toy [4:47]
03. Love Like Aliens [4:16]
04. Crystal Bullet [3:39]
05. Friendly Strangers [4:11]
06. Hybrid Moments [4:52]
07. Don't Wake Me Up [3:40]
08. Psychic Vamp [3:00]
09. Never Enough [4:29]
10. As Angels Spying Mars [4:31]
Disc2 - The Comets Garden
01. Love Like Aliens (Flu-On Version by Andy) [4:17]
02. Hybrid Moments (Hybrid mix by Neurobash) [7:18]
03. Hybrid Moments (Xelius Project rmx) [5:21]
04. Sitting On The Moon (Acretongue rmx) [5:13]
05. Your Killer Toy (Slave Republic rmx) [3:52]
06. Your Killer Toy (Halo In Reverse rmx) [5:12]
07. Hybrid Moments (Interface rmx) [5:37]
08. Love Like Aliens (Hentai Tentacle Sex mix by Mechanical Cabaret) [6:16]
09. Your Killer Toy (Adam Kult rmx) [4:57]
10. Your Kiler Toy (Suicidal Romance rmx) [4:03]
Источник: Физический носитель
Код:
Exact Audio Copy V0.99 prebeta 5 from 4. May 2009
Отчёт EAC об извлечении, выполненном 3. февраля 2010, 14:41
Helalyn Flowers / Stitches Of Eden
Дисковод: Optiarc DVD RW AD-7173A   Adapter: 0  ID: 0
Режим чтения                 : Достоверность
Использование точного потока : Да
Отключение кэша аудио        : Да
Использование указателей C2  : Нет
Коррекция смещения при чтении                     : 48
Способность читать области Lead-in и Lead-out     : Нет
Заполнение пропущенных сэмплов тишиной            : Да
Удаление блоков с тишиной в начале и конце        : Нет
При вычислениях CRC использовались нулевые сэмплы : Да
Интерфейс                                         : Установленный внешний ASPI-интерфейс
Выходной формат          : Пользовательский кодировщик
Выбранный битрейт        : 1024 kBit/s
Качество                 : Высокий
Добавление ID3-тэга      : Нет
Утилита сжатия           : C:\Program Files\Exact Audio Copy\Flac\flac.exe
Дополнительные параметры : -6 -V -T "ARTIST=%a" -T "TITLE=%t" -T "ALBUM=%g" -T "DATE=%y" -T "TRACKNUMBER=%n" -T "GENRE=%m" -T "COMMENT=%e" %s -o %d
TOC извлечённого CD
     Трек |   Старт  | Длительность | Начальный сектор | Конечный сектор
    ---------------------------------------------------------------------
       1  |  0:00.00 |    4:55.03   |           0      |      22127
       2  |  4:55.03 |    4:46.64   |       22128      |      43641
       3  |  9:41.67 |    4:16.00   |       43642      |      62841
       4  | 13:57.67 |    3:39.30   |       62842      |      79296
       5  | 17:37.22 |    4:10.51   |       79297      |      98097
       6  | 21:47.73 |    4:51.73   |       98098      |     119995
       7  | 26:39.71 |    3:40.12   |      119996      |     136507
       8  | 30:20.08 |    2:59.53   |      136508      |     149985
       9  | 33:19.61 |    4:29.00   |      149986      |     170160
      10  | 37:48.61 |    4:31.30   |      170161      |     190515
Характеристики диапазона извлечения и сообщения об ошибках
Выбранный диапазон
     Имя файла H:\СКАЧКА\FLAC\1 TORRENT\Helalyn Flowers - Stitches Of Eden.wav
     Пиковый уровень 99.9 %
     Качество диапазона 100.0 %
     CRC теста 55BE29DE
     CRC копии 55BE29DE
     Копирование... OK
Ошибок не произошло
AccurateRip: сводка
Трек  1  нет в базе данных
Трек  2  нет в базе данных
Трек  3  нет в базе данных
Трек  4  нет в базе данных
Трек  5  нет в базе данных
Трек  6  нет в базе данных
Трек  7  нет в базе данных
Трек  8  нет в базе данных
Трек  9  нет в базе данных
Трек 10  нет в базе данных
Ни одного трека нет в базе AccurateRip
Конец отчёта
Код:
Exact Audio Copy V0.99 prebeta 5 from 4. May 2009
Отчёт EAC об извлечении, выполненном 3. февраля 2010, 16:19
Helalyn Flowers / Stitches Of Eden
Дисковод: Optiarc DVD RW AD-7173A   Adapter: 0  ID: 0
Режим чтения                 : Достоверность
Использование точного потока : Да
Отключение кэша аудио        : Да
Использование указателей C2  : Нет
Коррекция смещения при чтении                     : 48
Способность читать области Lead-in и Lead-out     : Нет
Заполнение пропущенных сэмплов тишиной            : Да
Удаление блоков с тишиной в начале и конце        : Нет
При вычислениях CRC использовались нулевые сэмплы : Да
Интерфейс                                         : Установленный внешний ASPI-интерфейс
Выходной формат          : Пользовательский кодировщик
Выбранный битрейт        : 1024 kBit/s
Качество                 : Высокий
Добавление ID3-тэга      : Нет
Утилита сжатия           : C:\Program Files\Exact Audio Copy\Flac\flac.exe
Дополнительные параметры : -6 -V -T "ARTIST=%a" -T "TITLE=%t" -T "ALBUM=%g" -T "DATE=%y" -T "TRACKNUMBER=%n" -T "GENRE=%m" -T "COMMENT=%e" %s -o %d
TOC извлечённого CD
     Трек |   Старт  | Длительность | Начальный сектор | Конечный сектор
    ---------------------------------------------------------------------
       1  |  0:00.00 |    4:17.07   |           0      |      19281
       2  |  4:17.07 |    7:18.08   |       19282      |      52139
       3  | 11:35.15 |    5:21.02   |       52140      |      76216
       4  | 16:56.17 |    5:13.02   |       76217      |      99693
       5  | 22:09.19 |    3:51.50   |       99694      |     117068
       6  | 26:00.69 |    5:11.61   |      117069      |     140454
       7  | 31:12.55 |    5:36.52   |      140455      |     165706
       8  | 36:49.32 |    6:15.69   |      165707      |     193900
       9  | 43:05.26 |    4:57.02   |      193901      |     216177
      10  | 48:02.28 |    4:03.32   |      216178      |     234434
Характеристики диапазона извлечения и сообщения об ошибках
Выбранный диапазон
     Имя файла H:\СКАЧКА\FLAC\1 TORRENT\Helalyn Flowers - Stitches Of Eden.wav
     Пиковый уровень 100.0 %
     Качество диапазона 99.9 %
     CRC теста 547B74D8
     CRC копии 547B74D8
     Копирование... OK
Ошибок не произошло
AccurateRip: сводка
Трек  1  нет в базе данных
Трек  2  нет в базе данных
Трек  3  нет в базе данных
Трек  4  нет в базе данных
Трек  5  нет в базе данных
Трек  6  нет в базе данных
Трек  7  нет в базе данных
Трек  8  нет в базе данных
Трек  9  нет в базе данных
Трек 10  нет в базе данных
Ни одного трека нет в базе AccurateRip
Конец отчёта
Хочешь скачать, но не можешь из-за отсутствия сидов - пиши в личку!
Правила, инструкции, FAQ!!!
Торрент  Добавлен [26 июн 2020, 17:16] Скачать торрент Магнет ссылка
Скачать торрент
[ Размер 16.17 КБ / Просмотров 6 ]

Статус
Проверен 
 
Размер  748.29 МБ
Приватный: Нет (DHT включён)
.torrent скачан  0
 


     Отправить личное сообщение
   
Страница 1 из 1
Показать сообщения за:  Поле сортировки  
Начать новую тему Ответить на тему


Сейчас этот форум просматривают: нет зарегистрированных пользователей и гости: 0


Вы не можете начинать темы
Вы не можете отвечать на сообщения
Вы не можете редактировать свои сообщения
Вы не можете удалять свои сообщения
Вы не можете добавлять вложения

Перейти:  
cron