Начать новую тему Ответить на тему
Статистика раздачи
Размер: 200.26 МБ | Добавлен: 26 июн 2020, 17:17 | Скачали: 0
Сидеров: 0  [0 байт/сек]    Личеров: 0  [0 байт/сек]
Пред. тема | След. тема 

Автор
Сообщение

СообщениеДобавлено: 26 июн 2020, 17:17 

Ответить с цитатой 

Helalyn Flowers - Disconnection [EP]
Жанр: electro rock wave
Год выпуска диска: 2005
Производитель диска: (Alfa Matrix, Belgium)
Аудио кодек: FLAC
Тип рипа: image+.cue
Битрейт аудио: lossless
Продолжительность: 24:44.18
Треклист:
1. Acid Love Code [6:09]
2. Alienate Me [4:32]
3. Alive [4:28]
4. Disorder [5:38]
5. Amnesia [3:57]
Источник: Физический носитель
Код:
Exact Audio Copy V0.99 prebeta 5 from 4. May 2009
Отчёт EAC об извлечении, выполненном 6. мая 2010, 13:47
Helalyn Flowers / Disconnection [EP]
Дисковод: Optiarc DVD RW AD-7173A   Adapter: 0  ID: 0
Режим чтения                 : Достоверность
Использование точного потока : Да
Отключение кэша аудио        : Да
Использование указателей C2  : Нет
Коррекция смещения при чтении                     : 48
Способность читать области Lead-in и Lead-out     : Нет
Заполнение пропущенных сэмплов тишиной            : Да
Удаление блоков с тишиной в начале и конце        : Нет
При вычислениях CRC использовались нулевые сэмплы : Да
Интерфейс                                         : Установленный внешний ASPI-интерфейс
Выходной формат          : Пользовательский кодировщик
Выбранный битрейт        : 1024 kBit/s
Качество                 : Высокий
Добавление ID3-тэга      : Нет
Утилита сжатия           : C:\Program Files\Exact Audio Copy\Flac\flac.exe
Дополнительные параметры : -6 -V -T "ARTIST=%a" -T "TITLE=%t" -T "ALBUM=%g" -T "DATE=%y" -T "TRACKNUMBER=%n" -T "GENRE=%m" -T "COMMENT=%e" %s -o %d
TOC извлечённого CD
     Трек |   Старт  | Длительность | Начальный сектор | Конечный сектор
    ---------------------------------------------------------------------
       1  |  0:00.00 |    6:09.07   |           0      |      27681
       2  |  6:09.07 |    4:31.65   |       27682      |      48071
       3  | 10:40.72 |    4:27.65   |       48072      |      68161
       4  | 15:08.62 |    5:37.73   |       68162      |      93509
       5  | 20:46.60 |    3:57.33   |       93510      |     111317
Характеристики диапазона извлечения и сообщения об ошибках
Выбранный диапазон
     Имя файла H:\СКАЧКА\FLAC\1 TORRENT\Helalyn Flowers - Disconnection [EP].wav
     Пиковый уровень 97.8 %
     Качество диапазона 100.0 %
     CRC теста E2D7CF72
     CRC копии E2D7CF72
     Копирование... OK
Ошибок не произошло
AccurateRip: сводка
Трек  1  нет в базе данных
Трек  2  нет в базе данных
Трек  3  нет в базе данных
Трек  4  нет в базе данных
Трек  5  нет в базе данных
Ни одного трека нет в базе AccurateRip
Конец отчёта
Хочешь скачать, но не можешь из-за отсутствия сидов - пиши в личку!
Правила, инструкции, FAQ!!!
Торрент  Добавлен [26 июн 2020, 17:17] Скачать торрент Магнет ссылка
Скачать торрент
[ Размер 16.69 КБ / Просмотров 4 ]

Статус
Проверен 
 
Размер  200.26 МБ
Приватный: Нет (DHT включён)
.torrent скачан  0
 


     Отправить личное сообщение
   
Страница 1 из 1
Показать сообщения за:  Поле сортировки  
Начать новую тему Ответить на тему


Сейчас этот форум просматривают: нет зарегистрированных пользователей и гости: 0


Вы не можете начинать темы
Вы не можете отвечать на сообщения
Вы не можете редактировать свои сообщения
Вы не можете удалять свои сообщения
Вы не можете добавлять вложения

Перейти:  
cron