Начать новую тему Ответить на тему
Статистика раздачи
Размер: 1.03 ГБ | Добавлен: 23 май 2019, 23:26 | Скачали: 1
Сидеров: 6  [0 байт/сек]    Личеров: 1  [0 байт/сек]
Пред. тема | След. тема 

Автор
Сообщение

СообщениеДобавлено: 23 май 2019, 23:26 

Ответить с цитатой 

Bravo Hits vol.24
Жанр: Electro / Pop / Rap / Rock
Страна-производитель диска: Germany
Год издания: 1999
Издатель (лейбл): Warner Music
Номер по каталогу: 9548-37295-2
Страна: Germany
Аудиокодек: FLAC (*.flac)
Тип рипа: tracks+.cue
Битрейт аудио: lossless
Продолжительность: 02:25:28
Источник (релизер): CD
Наличие сканов в содержимом раздачи: 600dpi PNG
Код:
1. Emilia - Big Big World (album version) (3:24)
2. Oli.P - I Wish (radio mix) (3:23)
3. Boyzone - No Matter What (single version) (4:34)
4. Sasha - If You Believe (radio mix) (4:01)
5. East 17 - Each Time (radio edit) (3:57)
6. Brandy - Have You Ever? (radio edit) (4:10)
7. Lamar - Shine (David's Song) (feat. Jemini) (radio mix) (3:42)
8. Down Low - H.I.V. (single/video version) (3:46)
9. 2-4 Family - Lean on Me (feat. The Family) (radio version) (3:40)
10. Lenny Kravitz - Fly Away (album version) (3:42)
11. Touch and Go - Would You...? (radio edit) (3:12)
12. Music Instructor - Get Freaky (feat. Abe) (single edit) (3:46)
13. Scooter - Call Me Manana (Heavy Horses radio) (3:48)
14. United Deejays for Central America - Too Much Rain (A.T.B. vs. Woody Van Eyden) (3:39)
15. DJ Sammy - In 2 Eternity (feat. Carisma) (single version) (3:50)
16. DJ Quicksilver - Believe (album version (shortened)) (3:18)
17. Vengaboys - Boom. Boom. Boom. Boom!! (airplay version) (3:25)
18. Philipp - Ich will Spaß (Spielt mich im Radio mix) (2:59)
19. Touché - This Goodbye Is Not Forever (3:38)
20. Salt-N-Pepa - Push It (Again) (DJ Tonka remix edit) (3:44)
Код:
1. Jay-Z - Hard Knock Life (The Ghetto Anthem) (The Ghetto Anthem Radio Edit) (4:02)
2. Absolute Beginner - Liebes Lied (Single Version) (3:46)
3. Will Smith - Miami (Single-Album Version) (3:20)
4. Southside Rockers - Everybody Now (Olá Ey) (Radio Edit) (3:44)
5. Nucomers Feat. K.S.T. - Take A Ride (Radio-Video Version) (3:24)
6. Spike - Respect (Radio Mix) (3:42)
7. Schiller - Das Glockenspiel (Video Edit) (3:12)
8. TV Junkeez Feat. K.I.T.T. - Knight Rider (Radio Edit) (3:15)
9. Miss Jane - It's A Fine Day (Radio Mix) (3:31)
10. Liquido - Narcotic (Radio Edit) (3:53)
11. Die Roten Rosen - Auld Lang Syne (Single Version) (2:34)
12. Scycs - Grounded (Radio Edit) (3:17)
13. Die 3. Generation - Vater. Wo Bist Du? (Single Edit) (3:49)
14. Cappuccino - Regenbögen (Radio Mix) (3:59)
15. Echt - Wo Bist Du Jetzt? (Radio Edit) (3:36)
16. Basis - Ich Will Euer Leben Nicht! (Radio Version) (3:34)
17. DJ Sakin & Friends - Nomansland (David's Song) (Vocal Radio Cut) (3:37)
18. Squeezer - Wishing You Were Here (Radio-Video Version) (3:42)
19. Loona - Hijo De La Luna (Radio Version) (3:53)
20. Spice Girls - Goodbye (Radio Edit) (4:20)
Код:
Exact Audio Copy V1.0 beta 3 from 29. August 2011
EAC extraction logfile from 12. April 2012, 0:16
Various Artists / Bravo Hits 24 - CD1
Used drive  : hp      BDDVDRW CT21L   Adapter: 0  ID: 1
Read mode               : Secure
Utilize accurate stream : Yes
Defeat audio cache      : Yes
Make use of C2 pointers : No
Read offset correction                      : 102
Overread into Lead-In and Lead-Out          : No
Fill up missing offset samples with silence : Yes
Delete leading and trailing silent blocks   : No
Null samples used in CRC calculations       : Yes
Used interface                              : Native Win32 interface for Win NT & 2000
Gap handling                                : Appended to previous track
Used output format              : User Defined Encoder
Selected bitrate                : 896 kBit/s
Quality                         : High
Add ID3 tag                     : No
Command line compressor         : C:\Program Files (x86)\Exact Audio Copy\FLAC\FLAC.EXE
Additional command line options : -8 -V -T "ARTIST=%artist%" -T "TITLE=%title%" -T "ALBUM=%albumtitle%" -T "DATE=%year%" -T "TRACKNUMBER=%tracknr%" -T "GENRE=%genre%" -T "COMMENT=%comment%" -T "BAND=%albuminterpret%" -T "ALBUMARTIST=%albuminterpret%" -T "COMPOSER=%composer%" %haslyrics%--tag-from-file=LYRICS="%lyricsfile%"%haslyrics% -T "DISCNUMBER=%cdnumber%" -T "TOTALDISCS=%totalcds%" -T "TOTALTRACKS=%numtracks%" %hascover%--picture="%coverfile%"%hascover% %source% -o %dest%
TOC of the extracted CD
     Track |   Start  |  Length  | Start sector | End sector
    ---------------------------------------------------------
        1  |  0:00.00 |  3:24.40 |         0    |    15339
        2  |  3:24.40 |  3:23.30 |     15340    |    30594
        3  |  6:47.70 |  4:33.72 |     30595    |    51141
        4  | 11:21.67 |  4:01.08 |     51142    |    69224
        5  | 15:23.00 |  3:57.12 |     69225    |    87011
        6  | 19:20.12 |  4:10.25 |     87012    |   105786
        7  | 23:30.37 |  3:42.30 |    105787    |   122466
        8  | 27:12.67 |  3:45.68 |    122467    |   139409
        9  | 30:58.60 |  3:40.00 |    139410    |   155909
       10  | 34:38.60 |  3:41.47 |    155910    |   172531
       11  | 38:20.32 |  3:11.53 |    172532    |   186909
       12  | 41:32.10 |  3:46.07 |    186910    |   203866
       13  | 45:18.17 |  3:48.30 |    203867    |   220996
       14  | 49:06.47 |  3:38.40 |    220997    |   237386
       15  | 52:45.12 |  3:50.23 |    237387    |   254659
       16  | 56:35.35 |  3:18.00 |    254660    |   269509
       17  | 59:53.35 |  3:24.50 |    269510    |   284859
       18  | 63:18.10 |  2:59.25 |    284860    |   298309
       19  | 66:17.35 |  3:37.70 |    298310    |   314654
       20  | 69:55.30 |  3:43.52 |    314655    |   331431
Track  1
     Filename D:\OUTPUT FILES\01 Emilia - Big Big World (album version).wav
     Pre-gap length  0:00:02.00
     Peak level 87.0 %
     Extraction speed 1.0 X
     Track quality 99.9 %
     Test CRC 256957A6
     Copy CRC 256957A6
     Cannot be verified as accurate (confidence 64)  [74FE30A5], AccurateRip returned [8810A10D]  (AR v2)
     Copy OK
Track  2
     Filename D:\OUTPUT FILES\02 Oli.P - I Wish (radio mix).wav
     Pre-gap length  0:00:01.70
     Peak level 72.1 %
     Extraction speed 1.2 X
     Track quality 100.0 %
     Test CRC 4A662FD9
     Copy CRC 4A662FD9
     Cannot be verified as accurate (confidence 65)  [90DAD68B], AccurateRip returned [61D483B5]  (AR v2)
     Copy OK
Track  3
     Filename D:\OUTPUT FILES\03 Boyzone - No Matter What (single version).wav
     Pre-gap length  0:00:01.70
     Peak level 80.6 %
     Extraction speed 1.4 X
     Track quality 100.0 %
     Test CRC F06489D9
     Copy CRC F06489D9
     Cannot be verified as accurate (confidence 65)  [2B40B89B], AccurateRip returned [C0D6EB54]  (AR v2)
     Copy OK
Track  4
     Filename D:\OUTPUT FILES\04 Sasha - If You Believe (radio mix).wav
     Pre-gap length  0:00:01.69
     Peak level 97.6 %
     Extraction speed 1.5 X
     Track quality 100.0 %
     Test CRC 5739AB58
     Copy CRC 5739AB58
     Cannot be verified as accurate (confidence 64)  [9554A992], AccurateRip returned [F59603B4]  (AR v2)
     Copy OK
Track  5
     Filename D:\OUTPUT FILES\05 East 17 - Each Time (radio edit).wav
     Pre-gap length  0:00:01.70
     Peak level 91.0 %
     Extraction speed 1.6 X
     Track quality 100.0 %
     Test CRC FBC3A191
     Copy CRC FBC3A191
     Cannot be verified as accurate (confidence 63)  [C37B176F], AccurateRip returned [A2BCBC74]  (AR v2)
     Copy OK
Track  6
     Filename D:\OUTPUT FILES\06 Brandy - Have You Ever (radio edit).wav
     Pre-gap length  0:00:01.69
     Peak level 68.9 %
     Extraction speed 1.5 X
     Track quality 99.9 %
     Test CRC 0CE19D61
     Copy CRC 0CE19D61
     Cannot be verified as accurate (confidence 63)  [0B23C8AB], AccurateRip returned [2D922182]  (AR v2)
     Copy OK
Track  7
     Filename D:\OUTPUT FILES\07 Lamar - Shine (David's Song) (feat. Jemini) (radio mix).wav
     Pre-gap length  0:00:01.69
     Peak level 79.5 %
     Extraction speed 1.5 X
     Track quality 99.9 %
     Test CRC EF4AD906
     Copy CRC EF4AD906
     Cannot be verified as accurate (confidence 62)  [38022F21], AccurateRip returned [E1A14A6E]  (AR v2)
     Copy OK
Track  8
     Filename D:\OUTPUT FILES\08 Down Low - H.I.V. (single,video version).wav
     Pre-gap length  0:00:01.69
     Peak level 91.1 %
     Extraction speed 1.8 X
     Track quality 100.0 %
     Test CRC D2A59999
     Copy CRC D2A59999
     Cannot be verified as accurate (confidence 61)  [CF70CA21], AccurateRip returned [253FF737]  (AR v2)
     Copy OK
Track  9
     Filename D:\OUTPUT FILES\09 2-4 Family - Lean on Me (feat. The Family) (radio version).wav
     Pre-gap length  0:00:01.70
     Peak level 74.2 %
     Extraction speed 1.9 X
     Track quality 100.0 %
     Test CRC EE4D5B3E
     Copy CRC EE4D5B3E
     Cannot be verified as accurate (confidence 64)  [49705B16], AccurateRip returned [8196F3FC]  (AR v2)
     Copy OK
Track 10
     Filename D:\OUTPUT FILES\10 Lenny Kravitz - Fly Away (album version).wav
     Pre-gap length  0:00:01.70
     Peak level 75.5 %
     Extraction speed 2.0 X
     Track quality 100.0 %
     Test CRC 4C80D825
     Copy CRC 4C80D825
     Cannot be verified as accurate (confidence 64)  [52E11343], AccurateRip returned [5CE2ADC8]  (AR v2)
     Copy OK
Track 11
     Filename D:\OUTPUT FILES\11 Touch and Go - Would You... (radio edit).wav
     Pre-gap length  0:00:01.69
     Peak level 78.4 %
     Extraction speed 2.0 X
     Track quality 100.0 %
     Test CRC 5850B949
     Copy CRC 5850B949
     Cannot be verified as accurate (confidence 64)  [F6272865], AccurateRip returned [A4D0D081]  (AR v2)
     Copy OK
Track 12
     Filename D:\OUTPUT FILES\12 Music Instructor - Get Freaky (feat. Abe) (single edit).wav
     Pre-gap length  0:00:01.70
     Peak level 86.0 %
     Extraction speed 1.8 X
     Track quality 99.9 %
     Test CRC 63D44321
     Copy CRC 63D44321
     Cannot be verified as accurate (confidence 62)  [C927F83B], AccurateRip returned [65951A5A]  (AR v2)
     Copy OK
Track 13
     Filename D:\OUTPUT FILES\13 Scooter - Call Me Manana (Heavy Horses radio).wav
     Pre-gap length  0:00:01.69
     Peak level 67.3 %
     Extraction speed 1.9 X
     Track quality 99.9 %
     Test CRC 5953F28D
     Copy CRC 5953F28D
     Cannot be verified as accurate (confidence 62)  [75260202], AccurateRip returned [31B7F4C8]  (AR v2)
     Copy OK
Track 14
     Filename D:\OUTPUT FILES\14 United Deejays for Central America - Too Much Rain (A.T.B. vs. Woody Van Eyden).wav
     Pre-gap length  0:00:01.69
     Peak level 65.0 %
     Extraction speed 2.2 X
     Track quality 100.0 %
     Test CRC 8D88F923
     Copy CRC 8D88F923
     Cannot be verified as accurate (confidence 64)  [9AC67AC6], AccurateRip returned [73FBC664]  (AR v2)
     Copy OK
Track 15
     Filename D:\OUTPUT FILES\15 DJ Sammy - In 2 Eternity (feat. Carisma) (single version).wav
     Pre-gap length  0:00:01.69
     Peak level 65.0 %
     Extraction speed 2.3 X
     Track quality 100.0 %
     Test CRC 6FEA04AA
     Copy CRC 6FEA04AA
     Cannot be verified as accurate (confidence 62)  [83FD8B23], AccurateRip returned [F7345441]  (AR v2)
     Copy OK
Track 16
     Filename D:\OUTPUT FILES\16 DJ Quicksilver - Believe (album version (shortened)).wav
     Pre-gap length  0:00:01.70
     Peak level 84.4 %
     Extraction speed 2.3 X
     Track quality 100.0 %
     Test CRC F2340C0E
     Copy CRC F2340C0E
     Cannot be verified as accurate (confidence 60)  [8DCE2583], AccurateRip returned [9364AC13]  (AR v2)
     Copy OK
Track 17
     Filename D:\OUTPUT FILES\17 Vengaboys - Boom, Boom, Boom, Boom!! (airplay version).wav
     Pre-gap length  0:00:01.73
     Peak level 80.2 %
     Extraction speed 2.3 X
     Track quality 100.0 %
     Test CRC 1CE121E6
     Copy CRC 1CE121E6
     Cannot be verified as accurate (confidence 61)  [4BDBD951], AccurateRip returned [4F13C997]  (AR v2)
     Copy OK
Track 18
     Filename D:\OUTPUT FILES\18 Philipp - Ich will Spaß (Spielt mich im Radio mix).wav
     Pre-gap length  0:00:01.70
     Peak level 68.6 %
     Extraction speed 2.3 X
     Track quality 100.0 %
     Test CRC 97348F69
     Copy CRC 97348F69
     Cannot be verified as accurate (confidence 61)  [61CE525B], AccurateRip returned [19EB6C56]  (AR v2)
     Copy OK
Track 19
     Filename D:\OUTPUT FILES\19 Touché - This Goodbye Is Not Forever.wav
     Pre-gap length  0:00:01.70
     Peak level 63.0 %
     Extraction speed 2.4 X
     Track quality 100.0 %
     Test CRC 9439C917
     Copy CRC 9439C917
     Cannot be verified as accurate (confidence 59)  [44FE3F11], AccurateRip returned [AFE99B8F]  (AR v2)
     Copy OK
Track 20
     Filename D:\OUTPUT FILES\20 Salt-N-Pepa - Push It (Again) (DJ Tonka remix edit).wav
     Pre-gap length  0:00:01.70
     Peak level 76.5 %
     Extraction speed 2.5 X
     Track quality 100.0 %
     Test CRC 7DA37ADC
     Copy CRC 7DA37ADC
     Cannot be verified as accurate (confidence 61)  [E39BDBC4], AccurateRip returned [F5AF55CC]  (AR v2)
     Copy OK
No tracks could be verified as accurate
You may have a different pressing from the one(s) in the database
No errors occurred
End of status report
---- CUETools DB Plugin V2.1.3
[CTDB TOCID: ed0PxpLWoGq.Duwe48Z04x7dRMU-] found, Submit result: already submitted
[67db8225] (8/9) Accurately ripped
[8d6062d8] (1/9) Differs in 148 samples @08:07:34-08:07:35,08:07:46,08:07:70,08:08:18-08:08:19,08:08:30-08:08:31
You can use CUETools to repair this rip.
==== Log checksum 3990F91C93F574C41AE0644B5D8C03D9FD57CA54F9741E061C9417D1723D1004 ====
Код:
Exact Audio Copy V1.0 beta 3 from 29. August 2011
EAC extraction logfile from 11. April 2012, 22:48
Various Artists / Bravo Hits 24 - CD2
Used drive  : hp      BDDVDRW CT21L   Adapter: 0  ID: 1
Read mode               : Secure
Utilize accurate stream : Yes
Defeat audio cache      : Yes
Make use of C2 pointers : No
Read offset correction                      : 102
Overread into Lead-In and Lead-Out          : No
Fill up missing offset samples with silence : Yes
Delete leading and trailing silent blocks   : No
Null samples used in CRC calculations       : Yes
Used interface                              : Native Win32 interface for Win NT & 2000
Gap handling                                : Appended to previous track
Used output format              : User Defined Encoder
Selected bitrate                : 896 kBit/s
Quality                         : High
Add ID3 tag                     : No
Command line compressor         : C:\Program Files (x86)\Exact Audio Copy\FLAC\FLAC.EXE
Additional command line options : -8 -V -T "ARTIST=%artist%" -T "TITLE=%title%" -T "ALBUM=%albumtitle%" -T "DATE=%year%" -T "TRACKNUMBER=%tracknr%" -T "GENRE=%genre%" -T "COMMENT=%comment%" -T "BAND=%albuminterpret%" -T "ALBUMARTIST=%albuminterpret%" -T "COMPOSER=%composer%" %haslyrics%--tag-from-file=LYRICS="%lyricsfile%"%haslyrics% -T "DISCNUMBER=%cdnumber%" -T "TOTALDISCS=%totalcds%" -T "TOTALTRACKS=%numtracks%" %hascover%--picture="%coverfile%"%hascover% %source% -o %dest%
TOC of the extracted CD
     Track |   Start  |  Length  | Start sector | End sector
    ---------------------------------------------------------
        1  |  0:00.00 |  4:01.45 |         0    |    18119
        2  |  4:01.45 |  3:46.22 |     18120    |    35091
        3  |  7:47.67 |  3:19.63 |     35092    |    50079
        4  | 11:07.55 |  3:43.52 |     50080    |    66856
        5  | 14:51.32 |  3:23.60 |     66857    |    82141
        6  | 18:15.17 |  3:41.53 |     82142    |    98769
        7  | 21:56.70 |  3:12.37 |     98770    |   113206
        8  | 25:09.32 |  3:14.38 |    113207    |   127794
        9  | 28:23.70 |  3:31.15 |    127795    |   143634
       10  | 31:55.10 |  3:53.25 |    143635    |   161134
       11  | 35:48.35 |  2:34.00 |    161135    |   172684
       12  | 38:22.35 |  3:16.62 |    172685    |   187446
       13  | 41:39.22 |  3:48.50 |    187447    |   204596
       14  | 45:27.72 |  3:59.23 |    204597    |   222544
       15  | 49:27.20 |  3:36.02 |    222545    |   238746
       16  | 53:03.22 |  3:33.68 |    238747    |   254789
       17  | 56:37.15 |  3:36.55 |    254790    |   271044
       18  | 60:13.70 |  3:41.45 |    271045    |   287664
       19  | 63:55.40 |  3:53.17 |    287665    |   305156
       20  | 67:48.57 |  4:19.43 |    305157    |   324624
Track  1
     Filename D:\OUTPUT FILES\01 Jay-Z - Hard Knock Life (The Ghetto Anthem) (The Ghetto Anthem Radio Edit).wav
     Pre-gap length  0:00:02.00
     Peak level 77.9 %
     Extraction speed 1.2 X
     Track quality 100.0 %
     Test CRC 837EC7CC
     Copy CRC 837EC7CC
     Cannot be verified as accurate (confidence 65)  [A120FA37], AccurateRip returned [CAC118A4]  (AR v2)
     Copy OK
Track  2
     Filename D:\OUTPUT FILES\02 Absolute Beginner - Liebes Lied (Single Version).wav
     Pre-gap length  0:00:01.70
     Peak level 70.0 %
     Extraction speed 1.3 X
     Track quality 100.0 %
     Test CRC 53BDB2F7
     Copy CRC 53BDB2F7
     Cannot be verified as accurate (confidence 64)  [85AE95AC], AccurateRip returned [23EA61D4]  (AR v2)
     Copy OK
Track  3
     Filename D:\OUTPUT FILES\03 Will Smith - Miami (Single-Album Version).wav
     Pre-gap length  0:00:01.69
     Peak level 79.9 %
     Extraction speed 1.1 X
     Track quality 99.9 %
     Test CRC 1921F05C
     Copy CRC 1921F05C
     Cannot be verified as accurate (confidence 66)  [B4D8AA6C], AccurateRip returned [E6E8E0C6]  (AR v2)
     Copy OK
Track  4
     Filename D:\OUTPUT FILES\04 Southside Rockers - Everybody Now (Olá Ey) (Radio Edit).wav
     Pre-gap length  0:00:01.70
     Peak level 70.0 %
     Extraction speed 1.4 X
     Track quality 100.0 %
     Test CRC 7DEA1326
     Copy CRC 7DEA1326
     Cannot be verified as accurate (confidence 65)  [6AB7AA87], AccurateRip returned [D0F69755]  (AR v2)
     Copy OK
Track  5
     Filename D:\OUTPUT FILES\05 Nucomers Feat. K.S.T. - Take A Ride (Radio-Video Version).wav
     Pre-gap length  0:00:01.69
     Peak level 72.7 %
     Extraction speed 1.5 X
     Track quality 100.0 %
     Test CRC 9CE3C609
     Copy CRC 9CE3C609
     Cannot be verified as accurate (confidence 65)  [B00A1EC0], AccurateRip returned [4E8C408A]  (AR v2)
     Copy OK
Track  6
     Filename D:\OUTPUT FILES\06 Spike - Respect (Radio Mix).wav
     Pre-gap length  0:00:01.69
     Peak level 66.1 %
     Extraction speed 1.6 X
     Track quality 100.0 %
     Test CRC D87CB09A
     Copy CRC D87CB09A
     Cannot be verified as accurate (confidence 65)  [57269027], AccurateRip returned [8DB917A6]  (AR v2)
     Copy OK
Track  7
     Filename D:\OUTPUT FILES\07 Schiller - Das Glockenspiel (Video Edit).wav
     Pre-gap length  0:00:01.70
     Peak level 67.3 %
     Extraction speed 1.6 X
     Track quality 100.0 %
     Test CRC DEC81E9D
     Copy CRC DEC81E9D
     Cannot be verified as accurate (confidence 64)  [ACA9D60E], AccurateRip returned [46602B68]  (AR v2)
     Copy OK
Track  8
     Filename D:\OUTPUT FILES\08 TV Junkeez Feat. K.I.T.T. - Knight Rider (Radio Edit).wav
     Pre-gap length  0:00:01.69
     Peak level 69.7 %
     Extraction speed 1.4 X
     Track quality 99.9 %
     Test CRC 9859B650
     Copy CRC 9859B650
     Cannot be verified as accurate (confidence 64)  [9D619419], AccurateRip returned [915B3BB4]  (AR v2)
     Copy OK
Track  9
     Filename D:\OUTPUT FILES\09 Miss Jane - It's A Fine Day (Radio Mix).wav
     Pre-gap length  0:00:01.70
     Peak level 72.7 %
     Extraction speed 1.8 X
     Track quality 100.0 %
     Test CRC AF95AF3A
     Copy CRC AF95AF3A
     Cannot be verified as accurate (confidence 65)  [87EB2D58], AccurateRip returned [5C654DA3]  (AR v2)
     Copy OK
Track 10
     Filename D:\OUTPUT FILES\10 Liquido - Narcotic (Radio Edit).wav
     Pre-gap length  0:00:01.70
     Peak level 70.1 %
     Extraction speed 1.9 X
     Track quality 100.0 %
     Test CRC D8023B57
     Copy CRC D8023B57
     Cannot be verified as accurate (confidence 66)  [65EC2578], AccurateRip returned [1AE89FFC]  (AR v2)
     Copy OK
Track 11
     Filename D:\OUTPUT FILES\11 Die Roten Rosen - Auld Lang Syne (Single Version).wav
     Pre-gap length  0:00:01.70
     Peak level 66.1 %
     Extraction speed 1.5 X
     Track quality 99.9 %
     Test CRC 693B3C50
     Copy CRC 693B3C50
     Cannot be verified as accurate (confidence 65)  [56FEF125], AccurateRip returned [9F8FD883]  (AR v2)
     Copy OK
Track 12
     Filename D:\OUTPUT FILES\12 Scycs - Grounded (Radio Edit).wav
     Pre-gap length  0:00:01.70
     Peak level 66.1 %
     Extraction speed 1.9 X
     Track quality 100.0 %
     Test CRC 770E1782
     Copy CRC 770E1782
     Cannot be verified as accurate (confidence 64)  [B9839FC2], AccurateRip returned [A65F78FC]  (AR v2)
     Copy OK
Track 13
     Filename D:\OUTPUT FILES\13 Die 3. Generation - Vater, Wo Bist Du (Single Edit).wav
     Pre-gap length  0:00:01.69
     Peak level 66.1 %
     Extraction speed 2.1 X
     Track quality 100.0 %
     Test CRC 0C618C37
     Copy CRC 0C618C37
     Cannot be verified as accurate (confidence 63)  [ADF0F264], AccurateRip returned [BDB5D5FA]  (AR v2)
     Copy OK
Track 14
     Filename D:\OUTPUT FILES\14 Cappuccino - Regenbögen (Radio Mix).wav
     Pre-gap length  0:00:01.69
     Peak level 74.2 %
     Extraction speed 2.2 X
     Track quality 100.0 %
     Test CRC 5E056699
     Copy CRC 5E056699
     Cannot be verified as accurate (confidence 63)  [F016607F], AccurateRip returned [F1BD50C4]  (AR v2)
     Copy OK
Track 15
     Filename D:\OUTPUT FILES\15 Echt - Wo Bist Du Jetzt (Radio Edit).wav
     Pre-gap length  0:00:01.70
     Peak level 81.2 %
     Extraction speed 2.2 X
     Track quality 100.0 %
     Test CRC 86B75754
     Copy CRC 86B75754
     Cannot be verified as accurate (confidence 65)  [0F568214], AccurateRip returned [92C392B4]  (AR v2)
     Copy OK
Track 16
     Filename D:\OUTPUT FILES\16 Basis - Ich Will Euer Leben Nicht! (Radio Version).wav
     Pre-gap length  0:00:01.69
     Peak level 72.7 %
     Extraction speed 2.2 X
     Track quality 100.0 %
     Test CRC 5B697A64
     Copy CRC 5B697A64
     Cannot be verified as accurate (confidence 63)  [20FD39A4], AccurateRip returned [B7FA6ECF]  (AR v2)
     Copy OK
Track 17
     Filename D:\OUTPUT FILES\17 DJ Sakin & Friends - Nomansland (David's Song) (Vocal Radio Cut).wav
     Pre-gap length  0:00:01.70
     Peak level 79.4 %
     Extraction speed 2.3 X
     Track quality 100.0 %
     Test CRC 33699FED
     Copy CRC 33699FED
     Cannot be verified as accurate (confidence 63)  [42719F60], AccurateRip returned [4B8BDAB8]  (AR v2)
     Copy OK
Track 18
     Filename D:\OUTPUT FILES\18 Squeezer - Wishing You Were Here (Radio-Video Version).wav
     Pre-gap length  0:00:01.70
     Peak level 62.4 %
     Extraction speed 2.3 X
     Track quality 100.0 %
     Test CRC A921EF88
     Copy CRC A921EF88
     Cannot be verified as accurate (confidence 62)  [886B7353], AccurateRip returned [87A19A22]  (AR v2)
     Copy OK
Track 19
     Filename D:\OUTPUT FILES\19 Loona - Hijo De La Luna (Radio Version).wav
     Pre-gap length  0:00:01.70
     Peak level 90.7 %
     Extraction speed 2.4 X
     Track quality 100.0 %
     Test CRC D58C6556
     Copy CRC D58C6556
     Cannot be verified as accurate (confidence 66)  [2EEAFE86], AccurateRip returned [6602F28A]  (AR v2)
     Copy OK
Track 20
     Filename D:\OUTPUT FILES\20 Spice Girls - Goodbye (Radio Edit).wav
     Pre-gap length  0:00:01.69
     Peak level 78.6 %
     Extraction speed 2.5 X
     Track quality 100.0 %
     Test CRC C2FDB760
     Copy CRC C2FDB760
     Cannot be verified as accurate (confidence 63)  [7B52C867], AccurateRip returned [BE9F3719]  (AR v2)
     Copy OK
No tracks could be verified as accurate
You may have a different pressing from the one(s) in the database
No errors occurred
End of status report
---- CUETools DB Plugin V2.1.3
[CTDB TOCID: 0Q64.jpqn5si1.1QzYIUKtYqX6A-] found, Submit result: 0Q64.jpqn5si1.1QzYIUKtYqX6A- has been confirmed
[70779b02] (10/12) Accurately ripped
[d626bee1] (01/12) No match
[f58b6e5e] (01/12) No match
==== Log checksum AED9960A184D7BD81740C8368BBA1E48CCFB4268CA422BBE0C36CBC86BDF43BD ====
Код:
REM GENRE Pop
REM DATE 1999
REM DISCID 27114314
REM COMMENT "ExactAudioCopy v1.0b3"
CATALOG 9548372950200
PERFORMER "Various Artists"
TITLE "Bravo Hits 24 - CD1"
FILE "01 Emilia - Big Big World (album version).wav" WAVE
  TRACK 01 AUDIO
    TITLE "Big Big World (album version)"
    PERFORMER "Emilia"
    ISRC SEBLM9808010
    INDEX 01 00:00:00
  TRACK 02 AUDIO
    TITLE "I Wish (radio mix)"
    PERFORMER "Oli.P"
    ISRC DEC739800729
    INDEX 00 03:22:62
FILE "02 Oli.P - I Wish (radio mix).wav" WAVE
    INDEX 01 00:00:00
  TRACK 03 AUDIO
    TITLE "No Matter What (single version)"
    PERFORMER "Boyzone"
    INDEX 00 03:21:52
FILE "03 Boyzone - No Matter What (single version).wav" WAVE
    INDEX 01 00:00:00
  TRACK 04 AUDIO
    TITLE "If You Believe (radio mix)"
    PERFORMER "Sasha"
    ISRC DEA629862590
    INDEX 00 04:32:20
FILE "04 Sasha - If You Believe (radio mix).wav" WAVE
    INDEX 01 00:00:00
  TRACK 05 AUDIO
    TITLE "Each Time (radio edit)"
    PERFORMER "East 17"
    ISRC GBAWV9801264
    INDEX 00 03:59:30
FILE "05 East 17 - Each Time (radio edit).wav" WAVE
    INDEX 01 00:00:00
  TRACK 06 AUDIO
    TITLE "Have You Ever? (radio edit)"
    PERFORMER "Brandy"
    INDEX 00 03:55:35
FILE "06 Brandy - Have You Ever (radio edit).wav" WAVE
    INDEX 01 00:00:00
  TRACK 07 AUDIO
    TITLE "Shine (David's Song) (feat. Jemini) (radio mix)"
    PERFORMER "Lamar"
    ISRC DEE869801887
    INDEX 00 04:08:48
FILE "07 Lamar - Shine (David's Song) (feat. Jemini) (radio mix).wav" WAVE
    INDEX 01 00:00:00
  TRACK 08 AUDIO
    TITLE "H.I.V. (single/video version)"
    PERFORMER "Down Low"
    ISRC DEE999900011
    INDEX 00 03:40:53
FILE "08 Down Low - H.I.V. (single,video version).wav" WAVE
    INDEX 01 00:00:00
  TRACK 09 AUDIO
    TITLE "Lean on Me (feat. The Family) (radio version)"
    PERFORMER "2-4 Family"
    ISRC DEE869801861
    INDEX 00 03:44:15
FILE "09 2-4 Family - Lean on Me (feat. The Family) (radio version).wav" WAVE
    INDEX 01 00:00:00
  TRACK 10 AUDIO
    TITLE "Fly Away (album version)"
    PERFORMER "Lenny Kravitz"
    ISRC USV129800169
    INDEX 00 03:38:22
FILE "10 Lenny Kravitz - Fly Away (album version).wav" WAVE
    INDEX 01 00:00:00
  TRACK 11 AUDIO
    TITLE "Would You...? (radio edit)"
    PERFORMER "Touch and Go"
    ISRC GBBLK9800236
    INDEX 00 03:39:70
FILE "11 Touch and Go - Would You... (radio edit).wav" WAVE
    INDEX 01 00:00:00
  TRACK 12 AUDIO
    TITLE "Get Freaky (feat. Abe) (single edit)"
    PERFORMER "Music Instructor"
    ISRC DEA619861110
    INDEX 00 03:10:00
FILE "12 Music Instructor - Get Freaky (feat. Abe) (single edit).wav" WAVE
    INDEX 01 00:00:00
  TRACK 13 AUDIO
    TITLE "Call Me Manana (Heavy Horses radio)"
    PERFORMER "Scooter"
    INDEX 00 03:44:30
FILE "13 Scooter - Call Me Manana (Heavy Horses radio).wav" WAVE
    INDEX 01 00:00:00
  TRACK 14 AUDIO
    TITLE "Too Much Rain (A.T.B. vs. Woody Van Eyden)"
    PERFORMER "United Deejays for Central America"
    ISRC DEC649800347
    INDEX 00 03:46:53
FILE "14 United Deejays for Central America - Too Much Rain (A.T.B. vs. Woody Van Eyden).wav" WAVE
    INDEX 01 00:00:00
  TRACK 15 AUDIO
    TITLE "In 2 Eternity (feat. Carisma) (single version)"
    PERFORMER "DJ Sammy"
    INDEX 00 03:36:63
FILE "15 DJ Sammy - In 2 Eternity (feat. Carisma) (single version).wav" WAVE
    INDEX 01 00:00:00
  TRACK 16 AUDIO
    TITLE "Believe (album version (shortened))"
    PERFORMER "DJ Quicksilver"
    ISRC DEL569800155
    INDEX 00 03:48:45
FILE "16 DJ Quicksilver - Believe (album version (shortened)).wav" WAVE
    INDEX 01 00:00:00
  TRACK 17 AUDIO
    TITLE "Boom, Boom, Boom, Boom!! (airplay version)"
    PERFORMER "Vengaboys"
    INDEX 00 03:16:20
FILE "17 Vengaboys - Boom, Boom, Boom, Boom!! (airplay version).wav" WAVE
    INDEX 01 00:00:00
  TRACK 18 AUDIO
    TITLE "Ich will Spaß (Spielt mich im Radio mix)"
    PERFORMER "Philipp"
    ISRC DEE869801696
    INDEX 00 03:22:72
FILE "18 Philipp - Ich will Spaß (Spielt mich im Radio mix).wav" WAVE
    INDEX 01 00:00:00
  TRACK 19 AUDIO
    TITLE "This Goodbye Is Not Forever"
    PERFORMER "Touché"
    ISRC DEC739800744
    INDEX 00 02:57:47
FILE "19 Touché - This Goodbye Is Not Forever.wav" WAVE
    INDEX 01 00:00:00
  TRACK 20 AUDIO
    TITLE "Push It (Again) (DJ Tonka remix edit)"
    PERFORMER "Salt-N-Pepa"
    INDEX 00 03:36:17
FILE "20 Salt-N-Pepa - Push It (Again) (DJ Tonka remix edit).wav" WAVE
    INDEX 01 00:00:00
Код:
REM GENRE Pop
REM DATE 1999
REM DISCID 2C10E814
REM COMMENT "ExactAudioCopy v1.0b3"
CATALOG 9548372950200
PERFORMER "Various Artists"
TITLE "Bravo Hits 24 - CD2"
FILE "01 Jay-Z - Hard Knock Life (The Ghetto Anthem) (The Ghetto Anthem Radio Edit).wav" WAVE
  TRACK 01 AUDIO
    TITLE "Hard Knock Life (The Ghetto Anthem) (The Ghetto Anthem Radio Edit)"
    PERFORMER "Jay-Z"
    INDEX 01 00:00:00
  TRACK 02 AUDIO
    TITLE "Liebes Lied (Single Version)"
    PERFORMER "Absolute Beginner"
    INDEX 00 03:59:67
FILE "02 Absolute Beginner - Liebes Lied (Single Version).wav" WAVE
    INDEX 01 00:00:00
  TRACK 03 AUDIO
    TITLE "Miami (Single-Album Version)"
    PERFORMER "Will Smith"
    ISRC USSM19702697
    INDEX 00 03:44:45
FILE "03 Will Smith - Miami (Single-Album Version).wav" WAVE
    INDEX 01 00:00:00
  TRACK 04 AUDIO
    TITLE "Everybody Now (Olá Ey) (Radio Edit)"
    PERFORMER "Southside Rockers"
    ISRC DEE869801939
    INDEX 00 03:18:10
FILE "04 Southside Rockers - Everybody Now (Olá Ey) (Radio Edit).wav" WAVE
    INDEX 01 00:00:00
  TRACK 05 AUDIO
    TITLE "Take A Ride (Radio-Video Version)"
    PERFORMER "Nucomers Feat. K.S.T."
    ISRC DEC649900001
    INDEX 00 03:42:00
FILE "05 Nucomers Feat. K.S.T. - Take A Ride (Radio-Video Version).wav" WAVE
    INDEX 01 00:00:00
  TRACK 06 AUDIO
    TITLE "Respect (Radio Mix)"
    PERFORMER "Spike"
    INDEX 00 03:22:08
FILE "06 Spike - Respect (Radio Mix).wav" WAVE
    INDEX 01 00:00:00
  TRACK 07 AUDIO
    TITLE "Das Glockenspiel (Video Edit)"
    PERFORMER "Schiller"
    INDEX 00 03:40:00
FILE "07 Schiller - Das Glockenspiel (Video Edit).wav" WAVE
    INDEX 01 00:00:00
  TRACK 08 AUDIO
    TITLE "Knight Rider (Radio Edit)"
    PERFORMER "TV Junkeez Feat. K.I.T.T."
    ISRC DEH849800149
    INDEX 00 03:10:60
FILE "08 TV Junkeez Feat. K.I.T.T. - Knight Rider (Radio Edit).wav" WAVE
    INDEX 01 00:00:00
  TRACK 09 AUDIO
    TITLE "It's A Fine Day (Radio Mix)"
    PERFORMER "Miss Jane"
    INDEX 00 03:12:60
FILE "09 Miss Jane - It's A Fine Day (Radio Mix).wav" WAVE
    INDEX 01 00:00:00
  TRACK 10 AUDIO
    TITLE "Narcotic (Radio Edit)"
    PERFORMER "Liquido"
    ISRC DEG129800581
    INDEX 00 03:29:37
FILE "10 Liquido - Narcotic (Radio Edit).wav" WAVE
    INDEX 01 00:00:00
  TRACK 11 AUDIO
    TITLE "Auld Lang Syne (Single Version)"
    PERFORMER "Die Roten Rosen"
    ISRC DEF249800750
    INDEX 00 03:51:47
FILE "11 Die Roten Rosen - Auld Lang Syne (Single Version).wav" WAVE
    INDEX 01 00:00:00
  TRACK 12 AUDIO
    TITLE "Grounded (Radio Edit)"
    PERFORMER "Scycs"
    ISRC DEH849800111
    INDEX 00 02:32:22
FILE "12 Scycs - Grounded (Radio Edit).wav" WAVE
    INDEX 01 00:00:00
  TRACK 13 AUDIO
    TITLE "Vater, Wo Bist Du? (Single Edit)"
    PERFORMER "Die 3. Generation"
    ISRC DEC769800308
    INDEX 00 03:15:10
FILE "13 Die 3. Generation - Vater, Wo Bist Du (Single Edit).wav" WAVE
    INDEX 01 00:00:00
  TRACK 14 AUDIO
    TITLE "Regenbögen (Radio Mix)"
    PERFORMER "Cappuccino"
    INDEX 00 03:46:73
FILE "14 Cappuccino - Regenbögen (Radio Mix).wav" WAVE
    INDEX 01 00:00:00
  TRACK 15 AUDIO
    TITLE "Wo Bist Du Jetzt? (Radio Edit)"
    PERFORMER "Echt"
    INDEX 00 03:57:45
FILE "15 Echt - Wo Bist Du Jetzt (Radio Edit).wav" WAVE
    INDEX 01 00:00:00
  TRACK 16 AUDIO
    TITLE "Ich Will Euer Leben Nicht! (Radio Version)"
    PERFORMER "Basis"
    INDEX 00 03:34:25
FILE "16 Basis - Ich Will Euer Leben Nicht! (Radio Version).wav" WAVE
    INDEX 01 00:00:00
  TRACK 17 AUDIO
    TITLE "Nomansland (David's Song) (Vocal Radio Cut)"
    PERFORMER "DJ Sakin & Friends"
    ISRC DEG549800760
    INDEX 00 03:32:15
FILE "17 DJ Sakin & Friends - Nomansland (David's Song) (Vocal Radio Cut).wav" WAVE
    INDEX 01 00:00:00
  TRACK 18 AUDIO
    TITLE "Wishing You Were Here (Radio-Video Version)"
    PERFORMER "Squeezer"
    ISRC DEA349900006
    INDEX 00 03:35:02
FILE "18 Squeezer - Wishing You Were Here (Radio-Video Version).wav" WAVE
    INDEX 01 00:00:00
  TRACK 19 AUDIO
    TITLE "Hijo De La Luna (Radio Version)"
    PERFORMER "Loona"
    INDEX 00 03:39:67
FILE "19 Loona - Hijo De La Luna (Radio Version).wav" WAVE
    INDEX 01 00:00:00
  TRACK 20 AUDIO
    TITLE "Goodbye (Radio Edit)"
    PERFORMER "Spice Girls"
    ISRC GBAAA9820805
    INDEX 00 03:51:40
FILE "20 Spice Girls - Goodbye (Radio Edit).wav" WAVE
    INDEX 01 00:00:00
Правила, инструкции, FAQ!!!
Торрент  Добавлен [23 май 2019, 23:26] Скачать торрент Магнет ссылка
Скачать торрент
[ Размер 15.09 КБ / Просмотров 33 ]

Статус
Проверен 
 
Размер  1.03 ГБ
Приватный: Нет (DHT включён)
.torrent скачан  1
 


     Отправить личное сообщение
   

СообщениеДобавлено: 28 сен 2020, 08:50 

Ответить с цитатой 

Зарегистрированные пользователи
Зарегистрированные пользователи

Стаж: 1 месяц 9 дней
Раздал: 2.35 ГБ
Скачал: 0 байт
Ратио: Seed.
Торренты: 0
Добрый день! Встаньте пожалуйста на раздачу.


Профиль     Отправить личное сообщение
   
Страница 1 из 1
Показать сообщения за:  Поле сортировки  
Начать новую тему Ответить на тему


Сейчас этот форум просматривают: нет зарегистрированных пользователей и гости: 0


Вы не можете начинать темы
Вы не можете отвечать на сообщения
Вы не можете редактировать свои сообщения
Вы не можете удалять свои сообщения
Вы не можете добавлять вложения

Перейти:  
cron