Начать новую тему Ответить на тему
Статистика раздачи
Размер: 508.13 МБ | Добавлен: 26 июн 2020, 17:44 | Скачали: 0
Сидеров: 0  [0 байт/сек]    Личеров: 0  [0 байт/сек]
Пред. тема | След. тема 

Автор
Сообщение

СообщениеДобавлено: 26 июн 2020, 17:44 

Ответить с цитатой 

Patenbrigade: Wolff / Baustopp!
Жанр: Electro
Страна-производитель диска: Germany
Год издания: 2012
Издатель (лейбл): Zweieck Recordings
Номер по каталогу: ZWE025
Страна: Germany
Аудиокодек: FLAC (*.flac)
Тип рипа: image+.cue
Битрейт аудио: lossless
Продолжительность: 01:19:06
Источник (релизер): собственноручный рип
Наличие сканов в содержимом раздачи: да
Треклист:
1 Vorbauten 4:00
2 Lastmoment 0:16
3 Der Generalmajor Fährt Zur Arbeit 4:15
4 Blaue Fliesen 4:18
5 Mit Jedem Sender Informationen 5:02
6 Corioliskraft 4:33
7 Korrosionsnarben 5:14
8 Sun After The Rain (Instrumental) 4:39
9 Bruttogeschossfläche 3:51
10 Schadenshöhe Unbekannt 4:28
11 Doppelmeisterschalter (Instrumental) 4:52
12 Grüne Wiese 3:35
13 Baustopp 4:45
14 Unfall Ohne Folgen 4:28
15 Heimweg 3:16
16 City Lunch 0:50
17 Spielerlaubnis (Original) 3:20
18 Quatsch Mit Sosse 1:10
19 Schlusslicht 4:06
20 Nachtschicht 3:41
21 Fassgehänge 4:31
Код:
Exact Audio Copy V1.0 beta 3 from 29. August 2011
Отчёт EAC об извлечении, выполненном 1. апреля 2013, 18:18
Patenbrigade: Wolff / Baustopp!
Дисковод: Optiarc DVD RW AD-5280S   Adapter: 0  ID: 1
Режим чтения                 : Достоверность
Использование точного потока : Да
Отключение кэша аудио        : Да
Использование указателей C2  : Нет
Коррекция смещения при чтении                     : 48
Способность читать области Lead-in и Lead-out     : Нет
Заполнение пропущенных сэмплов тишиной            : Да
Удаление блоков с тишиной в начале и конце        : Нет
При вычислениях CRC использовались нулевые сэмплы : Да
Интерфейс                                         : Встроенный Win32-интерфейс для Win NT/2000
Выходной формат : Внутренние WAV-операции
Формат сэмплов  : 44.100 Гц; 16 бит; стерео
TOC извлечённого CD
     Трек |   Старт  | Длительность | Начальный сектор | Конечный сектор
    ---------------------------------------------------------------------
       1  |  0:00.00 |    3:59.45   |           0      |      17969
       2  |  3:59.45 |    0:15.51   |       17970      |      19145
       3  |  4:15.21 |    4:15.07   |       19146      |      38277
       4  |  8:30.28 |    4:17.61   |       38278      |      57613
       5  | 12:48.14 |    5:01.40   |       57614      |      80228
       6  | 17:49.54 |    4:32.62   |       80229      |     100690
       7  | 22:22.41 |    5:13.60   |      100691      |     124225
       8  | 27:36.26 |    4:38.43   |      124226      |     145118
       9  | 32:14.69 |    3:51.32   |      145119      |     162475
      10  | 36:06.26 |    4:27.48   |      162476      |     182548
      11  | 40:33.74 |    4:52.26   |      182549      |     204474
      12  | 45:26.25 |    3:34.54   |      204475      |     220578
      13  | 49:01.04 |    4:44.54   |      220579      |     241932
      14  | 53:45.58 |    4:28.23   |      241933      |     262055
      15  | 58:14.06 |    3:15.51   |      262056      |     276731
      16  | 61:29.57 |    0:50.09   |      276732      |     280490
      17  | 62:19.66 |    3:19.34   |      280491      |     295449
      18  | 65:39.25 |    1:10.20   |      295450      |     300719
      19  | 66:49.45 |    4:05.60   |      300720      |     319154
      20  | 70:55.30 |    3:40.33   |      319155      |     335687
      21  | 74:35.63 |    4:30.51   |      335688      |     355988
Характеристики диапазона извлечения и сообщения об ошибках
Выбранный диапазон
     Имя файла E:\! РАЗДАЧИ\Patenbrigade- Wolff - Baustopp!\Patenbrigade- Wolff - Baustopp!.wav
     Пиковый уровень 95.5 %
     Скорость извлечения 4.6 X
     Качество диапазона 100.0 %
     CRC теста F924B94E
     CRC копии F924B94E
     Копирование... OK
Ошибок не произошло
AccurateRip: сводка
Трек  1  : извлечено точно (доверие 1)  [94B7A163]  (AR v1)
Трек  2  : извлечено точно (доверие 1)  [49C40BF5]  (AR v1)
Трек  3  : извлечено точно (доверие 1)  [12143D9A]  (AR v1)
Трек  4  : извлечено точно (доверие 1)  [02A4F182]  (AR v1)
Трек  5  : извлечено точно (доверие 1)  [E9FFB1E0]  (AR v1)
Трек  6  : извлечено точно (доверие 1)  [F1B2C10A]  (AR v1)
Трек  7  : извлечено точно (доверие 1)  [DBCE2ECE]  (AR v1)
Трек  8  : извлечено точно (доверие 1)  [8C1BAF08]  (AR v1)
Трек  9  : извлечено точно (доверие 1)  [D4B643C6]  (AR v1)
Трек 10  : извлечено точно (доверие 1)  [D674A508]  (AR v1)
Трек 11  : извлечено точно (доверие 1)  [4BAC90D7]  (AR v1)
Трек 12  : извлечено точно (доверие 1)  [FE9E9241]  (AR v1)
Трек 13  : извлечено точно (доверие 1)  [8D776197]  (AR v1)
Трек 14  : извлечено точно (доверие 1)  [38F8A491]  (AR v1)
Трек 15  : извлечено точно (доверие 1)  [24D709D9]  (AR v1)
Трек 16  : извлечено точно (доверие 1)  [E4DEEE6E]  (AR v1)
Трек 17  : извлечено точно (доверие 1)  [6CD35E13]  (AR v1)
Трек 18  : извлечено точно (доверие 1)  [72BF42F0]  (AR v1)
Трек 19  : извлечено точно (доверие 1)  [25762F50]  (AR v1)
Трек 20  : извлечено точно (доверие 1)  [DCD1591E]  (AR v1)
Трек 21  : извлечено точно (доверие 1)  [D69DB155]  (AR v1)
Все треки извлечены точно
Конец отчёта
---- CUETools DB Plugin V2.1.3
[CTDB TOCID: gcrOZSnb8S670uQOQb.SHW2F0lg-] found, Submit result: gcrOZSnb8S670uQOQb.SHW2F0lg- has been confirmed
[20f092d1] (1/1) Accurately ripped
==== Контрольная сумма отчёта EE49F9DBB681F3A59A9755F8251F3A308AEFA5E28D09A420CCEEACB9635F9229 ====
Правила, инструкции, FAQ!!!
Торрент  Добавлен [26 июн 2020, 17:44] Скачать торрент Магнет ссылка
Скачать торрент
[ Размер 40.92 КБ / Просмотров 9 ]

Статус
Проверен 
 
Размер  508.13 МБ
Приватный: Нет (DHT включён)
.torrent скачан  0
 


     Отправить личное сообщение
   
Страница 1 из 1
Показать сообщения за:  Поле сортировки  
Начать новую тему Ответить на тему


Сейчас этот форум просматривают: нет зарегистрированных пользователей и гости: 0


Вы не можете начинать темы
Вы не можете отвечать на сообщения
Вы не можете редактировать свои сообщения
Вы не можете удалять свои сообщения
Вы не можете добавлять вложения

Перейти:  
cron