Начать новую тему Ответить на тему
Статистика раздачи
Размер: 514.22 МБ | Добавлен: 26 июн 2020, 17:30 | Скачали: 0
Сидеров: 0  [0 байт/сек]    Личеров: 0  [0 байт/сек]
Пред. тема | След. тема 

Автор
Сообщение

СообщениеДобавлено: 26 июн 2020, 17:30 

Ответить с цитатой 

The Force Dimension / Kitty Hawk
Жанр: Electro, Minimal, Industrial
Страна-производитель диска: Germany
Год издания диска: 1996
Издатель (лейбл): Subtronic Records
Номер по каталогу: SUB 048
Формат: CD, Compilation
Аудиокодек: FLAC (*.flac)
Тип рипа: image+.cue
Битрейт аудио: lossless
Продолжительность: 1:13:49.16
Источник (релизер): Физический носитель (Собственный рип с оригинала).
Наличие сканов в содержимом раздачи: да
Треклист:
01. Dust (Remix) [5:34]
02. Carcinome (Banshee Remix) [3:28]
03. Exitement [3:01]
04. So-Dom (New Version) [4:24]
05. Green Hall [4:51]
06. Hangar V1.0 [3:22]
07. Our Deep World Of Darkness [6:57]
08. Julius Caesar [6:34]
09. Superballen [3:01]
10. Artic Apparatus [2:09]
11. Giant 'Ghost' Steps [4:41]
12. My Baby [1:59]
13. Hangar V1.1 [2:37]
14. Gabriëlle [4:10]
15. Carcinoma (Negative Results Mix) [5:06]
16. Fiebertranz [4:07]
17. Crystal Gazing [3:45]
18. Lightfood [4:03]
Код:
Exact Audio Copy V1.0 beta 3 from 29. August 2011
EAC extraction logfile from 27. February 2012, 22:15
The Force Dimension / Kitty Hawk
Used drive  : PLEXTOR BDDVDR PX-B320SA   Adapter: 0  ID: 2
Read mode               : Secure
Utilize accurate stream : Yes
Defeat audio cache      : Yes
Make use of C2 pointers : No
Read offset correction                      : 6
Overread into Lead-In and Lead-Out          : No
Fill up missing offset samples with silence : Yes
Delete leading and trailing silent blocks   : No
Null samples used in CRC calculations       : Yes
Used interface                              : Native Win32 interface for Win NT & 2000
Used output format              : User Defined Encoder
Selected bitrate                : 128 kBit/s
Quality                         : High
Add ID3 tag                     : No
Command line compressor         : C:\Program Files (x86)\FLAC\flac.exe
Additional command line options : -V -8 -T "Date=%year%" -T "Genre=%genre%" %source%
TOC of the extracted CD
     Track |   Start  |  Length  | Start sector | End sector
    ---------------------------------------------------------
        1  |  0:00.00 |  5:33.71 |         0    |    25045
        2  |  5:33.71 |  3:28.03 |     25046    |    40648
        3  |  9:01.74 |  3:01.25 |     40649    |    54248
        4  | 12:03.24 |  4:23.70 |     54249    |    74043
        5  | 16:27.19 |  4:51.35 |     74044    |    95903
        6  | 21:18.54 |  3:21.53 |     95904    |   111031
        7  | 24:40.32 |  6:57.01 |    111032    |   142307
        8  | 31:37.33 |  6:33.42 |    142308    |   171824
        9  | 38:11.00 |  3:01.23 |    171825    |   185422
       10  | 41:12.23 |  2:08.54 |    185423    |   195076
       11  | 43:21.02 |  4:41.39 |    195077    |   216190
       12  | 48:02.41 |  1:59.05 |    216191    |   225120
       13  | 50:01.46 |  2:36.65 |    225121    |   236885
       14  | 52:38.36 |  4:09.64 |    236886    |   255624
       15  | 56:48.25 |  5:05.45 |    255625    |   278544
       16  | 61:53.70 |  4:07.12 |    278545    |   297081
       17  | 66:01.07 |  3:45.04 |    297082    |   313960
       18  | 69:46.11 |  4:03.05 |    313961    |   332190
Range status and errors
Selected range
     Filename D:\The Force Dimension - Kitty Hawk (1996)\The Force Dimension - Kitty Hawk.wav
     Peak level 100.0 %
     Extraction speed 8.7 X
     Range quality 99.9 %
     Test CRC 081E5835
     Copy CRC 081E5835
     Copy OK
No errors occurred
AccurateRip summary
Track  1  accurately ripped (confidence 1)  [9001838A]  (AR v1)
Track  2  accurately ripped (confidence 1)  [8D044C3C]  (AR v1)
Track  3  accurately ripped (confidence 1)  [AFBC6856]  (AR v1)
Track  4  accurately ripped (confidence 1)  [77BFDEEA]  (AR v1)
Track  5  accurately ripped (confidence 1)  [DD27D165]  (AR v1)
Track  6  accurately ripped (confidence 1)  [A1937310]  (AR v1)
Track  7  accurately ripped (confidence 1)  [E9323ACA]  (AR v1)
Track  8  accurately ripped (confidence 1)  [6B07A832]  (AR v1)
Track  9  accurately ripped (confidence 1)  [F02606A0]  (AR v1)
Track 10  accurately ripped (confidence 1)  [565F13EF]  (AR v1)
Track 11  accurately ripped (confidence 1)  [5DBB2085]  (AR v1)
Track 12  accurately ripped (confidence 1)  [B45CB4C3]  (AR v1)
Track 13  accurately ripped (confidence 1)  [03A8E236]  (AR v1)
Track 14  accurately ripped (confidence 1)  [921E7B5F]  (AR v1)
Track 15  accurately ripped (confidence 1)  [78F1ACFB]  (AR v1)
Track 16  accurately ripped (confidence 1)  [2A512F4C]  (AR v1)
Track 17  accurately ripped (confidence 1)  [E8759067]  (AR v1)
Track 18  accurately ripped (confidence 1)  [C12F88E1]  (AR v1)
All tracks accurately ripped
End of status report
==== Log checksum 086949844C65C6AF842CF71ED66F622B53E1D8ABFF7D4C70024C0434B62587AE ====
Правила, инструкции, FAQ!!!
Торрент  Добавлен [26 июн 2020, 17:30] Скачать торрент Магнет ссылка
Скачать торрент
[ Размер 11 КБ / Просмотров 8 ]

Статус
Проверен 
 
Размер  514.22 МБ
Приватный: Нет (DHT включён)
.torrent скачан  0
 


     Отправить личное сообщение
   
Страница 1 из 1
Показать сообщения за:  Поле сортировки  
Начать новую тему Ответить на тему


Сейчас этот форум просматривают: нет зарегистрированных пользователей и гости: 0


Вы не можете начинать темы
Вы не можете отвечать на сообщения
Вы не можете редактировать свои сообщения
Вы не можете удалять свои сообщения
Вы не можете добавлять вложения

Перейти:  
cron