Начать новую тему Ответить на тему
Статистика раздачи
Размер: 471.53 МБ | Добавлен: 26 мар 2019, 20:38 | Скачали: 0
Сидеров: 0  [0 байт/сек]    Личеров: 0  [0 байт/сек]
Пред. тема | След. тема 

Автор
Сообщение

СообщениеДобавлено: 26 мар 2019, 20:38 

Ответить с цитатой 

Zeromancer - Eurotrash
Жанр: Electro Metal, Synth Rock
Год выпуска диска: 2004
Производитель диска: Russia
Аудио кодек: FLAC
Тип рипа: image+.cue
Битрейт аудио: lossless
Продолжительность: 01:06:18
Трэклист:
01. Doctor Online
02. Eurotrash
03. Need You Like A Drug
04. Chromebitch
05. Wannabe
06. Neo Geisha
07. Cupola
08. Send Me An Angel
09. Plasmatic
10. Raising Hell
11. Philharmonic
12. Germany
13. Doctor Online (Rico remix)
14. Fractured
Доп. информация:
Exact Audio Copy V0.99 prebeta 4 from 23. January 2008
Отчёт EAC об извлечении, выполненном 12. февраля 2009, 18:35
Zeromancer / Eurotrash
Дисковод: _NEC DVD_RW ND-4571A Adapter: 1 ID: 0
Режим чтения : Достоверность
Использование точного потока : Да
Отключение кэша аудио : Да
Использование указателей C2 : Нет
Коррекция смещения при чтении : 48
Способность читать области Lead-in и Lead-out : Нет
Заполнение пропущенных сэмплов тишиной : Да
Удаление блоков с тишиной в начале и конце : Нет
При вычислениях CRC использовались нулевые сэмплы : Да
Интерфейс : Установленный внешний ASPI-интерфейс
Выходной формат : Внутренние WAV-операции
Формат сэмплов : 44.100 Гц; 16 бит; стерео
TOC извлечённого CD
Трек | Старт | Длительность | Начальный сектор | Конечный сектор
---------------------------------------------------------------------
1 | 0:00.00 | 3:19.43 | 0 | 14967
2 | 3:19.43 | 4:08.31 | 14968 | 33598
3 | 7:27.74 | 3:31.45 | 33599 | 49468
4 | 10:59.44 | 4:18.06 | 49469 | 68824
5 | 15:17.50 | 3:50.01 | 68825 | 86075
6 | 19:07.51 | 4:32.46 | 86076 | 106521
7 | 23:40.22 | 6:00.03 | 106522 | 133524
8 | 29:40.25 | 3:58.05 | 133525 | 151379
9 | 33:38.30 | 5:23.46 | 151380 | 175650
10 | 39:02.01 | 4:55.63 | 175651 | 197838
11 | 43:57.64 | 4:59.26 | 197839 | 220289
12 | 48:57.15 | 8:17.58 | 220290 | 257622
13 | 57:14.73 | 4:41.41 | 257623 | 278738
14 | 61:56.39 | 4:21.58 | 278739 | 298371
Характеристики диапазона извлечения и сообщения об ошибках
Выбранный диапазон
Имя файла H:\Zeromancer - Eurotrash\Zeromancer - Eurotrash.wav
Пиковый уровень 98.8 %
Качество диапазона 100.0 %
CRC копии 36F2CF3F
Копирование... OK
Ошибок не произошло
AccurateRip: сводка
Трек 1 нет в базе данных
Трек 2 нет в базе данных
Трек 3 нет в базе данных
Трек 4 нет в базе данных
Трек 5 нет в базе данных
Трек 6 нет в базе данных
Трек 7 нет в базе данных
Трек 8 нет в базе данных
Трек 9 нет в базе данных
Трек 10 нет в базе данных
Трек 11 нет в базе данных
Трек 12 нет в базе данных
Трек 13 нет в базе данных
Трек 14 нет в базе данных
Ни одного трека нет в базе AccurateRip
Конец отчёта
Рип сделан с айрондовской лицензии
купить CD
дискография
новый альбом
Правила, инструкции, FAQ!!!
Торрент  Добавлен [26 мар 2019, 20:38] Скачать торрент Магнет ссылка
Скачать торрент
[ Размер 19.06 КБ / Просмотров 7 ]

Статус
Проверен 
 
Размер  471.53 МБ
Приватный: Нет (DHT включён)
.torrent скачан  0
 


     Отправить личное сообщение
   
Страница 1 из 1
Показать сообщения за:  Поле сортировки  
Начать новую тему Ответить на тему


Сейчас этот форум просматривают: нет зарегистрированных пользователей и гости: 0


Вы не можете начинать темы
Вы не можете отвечать на сообщения
Вы не можете редактировать свои сообщения
Вы не можете удалять свои сообщения
Вы не можете добавлять вложения

Перейти:  
cron