Начать новую тему Ответить на тему
Статистика раздачи
Размер: 446.87 МБ | Добавлен: 26 июн 2020, 18:00 | Скачали: 0
Сидеров: 0  [0 байт/сек]    Личеров: 0  [0 байт/сек]
Пред. тема | След. тема 

Автор
Сообщение

СообщениеДобавлено: 26 июн 2020, 18:00 

Ответить с цитатой 

Snog / Real Estate Man Plus[Maxi-Single]
Жанр: Electro, Leftfield, Industrial
Страна-производитель диска: Germany
Год издания диска: 2005
Издатель (лейбл): Hymen Records
Номер по каталогу: ¥743
Аудио кодек: FLAC (*.flac)
Тип рипа: image+.cue
Битрейт аудио: lossless
Продолжительность: 00:51:37
Источник (релизер): Личный диск
Наличие сканов в содержимом раздачи: да
Треклист:
01. Real Estate Man (Ubin Mix) 3:23
02. Real Estate Man (Sir Real's Ugly Mix) 5:43
03. Real Estate Man (8-Bit Apocalypse Mix) 6:07
04. Real Estate Man (Sir Real's Purty Mix) 5:09
05. Real Estate Man (Volum Mix) 5:25
06. Real Estate Man (Hecq Mix) 4:45
07. Real Estate Man (Super Awesome Electro Friends Forever Mix) 6:15
08. Real Estate Man (Sol_Dat Mix) 5:56
09. Real Estate Man (99 Original) 4:38
10. Real Estate Man (Live From The Sun Room) 4:13
Video: Real Estate Man (Ubin Mix)
Код:
Exact Audio Copy V0.99 prebeta 5 from 4. May 2009
Отчёт EAC об извлечении, выполненном 29. января 2011, 20:14
Snog / Real Estate Man Plus
Дисковод: PIONEER DVD-RW DVRTD10RS   Adapter: 1  ID: 0
Режим чтения                 : Достоверность
Использование точного потока : Да
Отключение кэша аудио        : Да
Использование указателей C2  : Нет
Коррекция смещения при чтении                     : 6
Способность читать области Lead-in и Lead-out     : Нет
Заполнение пропущенных сэмплов тишиной            : Да
Удаление блоков с тишиной в начале и конце        : Нет
При вычислениях CRC использовались нулевые сэмплы : Да
Интерфейс                                         : Встроенный Win32-интерфейс для Win NT/2000
Выходной формат : Внутренние WAV-операции
Формат сэмплов  : 44.100 Гц; 16 бит; стерео
TOC извлечённого CD
     Трек |   Старт  | Длительность | Начальный сектор | Конечный сектор
    ---------------------------------------------------------------------
       1  |  0:00.00 |    3:23.26   |           0      |      15250
       2  |  3:23.26 |    5:43.49   |       15251      |      41024
       3  |  9:07.00 |    6:07.47   |       41025      |      68596
       4  | 15:14.47 |    5:09.55   |       68597      |      91826
       5  | 20:24.27 |    5:25.30   |       91827      |     116231
       6  | 25:49.57 |    4:45.33   |      116232      |     137639
       7  | 30:35.15 |    6:15.32   |      137640      |     165796
       8  | 36:50.47 |    5:56.49   |      165797      |     192545
       9  | 42:47.21 |    4:38.24   |      192546      |     213419
      10  | 47:25.45 |    4:11.11   |      213420      |     232255
      11  | 54:08.56 |    4:32.39   |      243656      |     264094
Характеристики диапазона извлечения и сообщения об ошибках
Выбранный диапазон
     Имя файла C:\Раздачи DEHUMANOID\Snog - Real Estate Man Plus\Snog - Real Estate Man Plus.wav
     Пиковый уровень 100.0 %
     Качество диапазона 100 %
     CRC теста 7EC360C0
     CRC копии 7EC360C0
     Копирование... OK
Ошибок не произошло
AccurateRip: сводка
Трек  1  точное извлечение (доверие 1)  [5B13B213]
Трек  2  точное извлечение (доверие 1)  [027EBA8C]
Трек  3  точное извлечение (доверие 1)  [13E3B929]
Трек  4  точное извлечение (доверие 1)  [22955E04]
Трек  5  точное извлечение (доверие 1)  [558C9A3B]
Трек  6  точное извлечение (доверие 1)  [94880FEE]
Трек  7  точное извлечение (доверие 1)  [E499CBC8]
Трек  8  точное извлечение (доверие 1)  [259A2429]
Трек  9  точное извлечение (доверие 1)  [D3D13435]
Трек 10  точное извлечение (доверие 1)  [ED02A60D]
Все треки извлечены точно
Конец отчёта
Код:
Started at: пятница, 04. 02. 2011. - 17:57.28
1 file found
1 -===- D:\Раздачи DEHUMANOID\Snog - Real Estate Man Plus\Snog - Real Estate Man Plus.flac
  Extracted successfully
  Conclusion: this track is CDDA with probability 99%
  Tempfile successfully deleted.
Finished at: пятница, 04. 02. 2011. - 18:02.31 (operation time: 0:05.03)
Код:
General
Complete name                    : D:\Раздачи DEHUMANOID\Snog - Real Estate Man Plus\realestateman.mpeg
Format                           : MPEG-PS
File size                        : 39.6 MiB
Duration                         : 3mn 38s
Overall bit rate                 : 1 521 Kbps
Writing library                  : Apple MPEG-2 Encoder v361-20040408 [1255200 6540 R1255200 w4 e2s E0 s0x20002 V0x0]
Video
ID                               : 224 (0xE0)
Format                           : MPEG Video
Format version                   : Version 1
Format settings, BVOP            : Yes
Format settings, Matrix          : Default
Duration                         : 3mn 38s
Bit rate mode                    : Variable
Bit rate                         : 1 237 Kbps
Nominal bit rate                 : 1 255 Kbps
Width                            : 320 pixels
Height                           : 240 pixels
Display aspect ratio             : 4:3
Frame rate                       : 29.970 fps
Resolution                       : 8 bits
Scan type                        : Progressive
Bits/(Pixel*Frame)               : 0.537
Stream size                      : 32.2 MiB (81%)
Writing library                  : Apple MPEG-2 Encoder v361-20040408 [1255200 6540 R1255200 w4 e2s E0 s0x20002 V0x0]
Audio
ID                               : 192 (0xC0)
Format                           : MPEG Audio
Format version                   : Version 1
Format profile                   : Layer 2
Duration                         : 3mn 38s
Bit rate mode                    : Constant
Bit rate                         : 224 Kbps
Channel(s)                       : 2 channels
Sampling rate                    : 44.1 KHz
Stream size                      : 5.83 MiB (15%)
Правила, инструкции, FAQ!!!
Торрент  Добавлен [26 июн 2020, 18:00] Скачать торрент Магнет ссылка
Скачать торрент
[ Размер 18.45 КБ / Просмотров 12 ]

Статус
Проверен 
 
Размер  446.87 МБ
Приватный: Нет (DHT включён)
.torrent скачан  0
 


     Отправить личное сообщение
   
Страница 1 из 1
Показать сообщения за:  Поле сортировки  
Начать новую тему Ответить на тему


Сейчас этот форум просматривают: нет зарегистрированных пользователей и гости: 0


Вы не можете начинать темы
Вы не можете отвечать на сообщения
Вы не можете редактировать свои сообщения
Вы не можете удалять свои сообщения
Вы не можете добавлять вложения

Перейти:  
cron