Начать новую тему Ответить на тему
Статистика раздачи
Размер: 144.13 МБ | Добавлен: 26 июн 2020, 17:54 | Скачали: 0
Сидеров: 0  [0 байт/сек]    Личеров: 0  [0 байт/сек]
Пред. тема | След. тема 

Автор
Сообщение

СообщениеДобавлено: 26 июн 2020, 17:54 

Ответить с цитатой 

Kloq - We're Just Physical
Жанр: Electro
Год выпуска диска: 2007
Производитель диска: Germany
Аудио кодек: FLAC
Тип рипа: image+.cue
Битрейт аудио: lossless
Трэклист:
01 We're Just Physical (Full Length Version)
02 Push It
03 We're Just Physical (Radio Edit)
04 We're Just Physical (Stripped Down Remake By Ascii Disko)
05 We're Just Physical (The Kloq Remix)
Доп. информация: DJ Promo CD
Exact Audio Copy V0.99 prebeta 4 from 23. January 2008
Sprawozdanie ze zgrywania programem EAC z 13. Kwietnia 2009, 12:03
Kloq / We're Just Physical
Użyty napęd: PBDS DVD+-RW DS-8W1P Adapter: 1 ID: 0
Tryb odczytu: : Bezpieczny
Dokładny strumień : Tak
Neutralizacja bufora napędu : Tak
Zwracanie błędów C2 : Nie
Wspólna dla odczytu/zapisu korekta położenia : 594
Nadczytywanie w obszarach LeadIn i LeadOut : Nie
Dopełnianie ciszą brakujących próbek : Tak
Usuwanie początkowych i końcowych bloków ciszy : Nie
Do przeliczenia sumy kontrolnej CRC używane są próbki zerowe : Tak
Interfejs : Wewnętrzny interfejs Win32 dla Windows NT i 2000
Użyty format wyjściowy : Koder użytkownika
Wybrana przepływność bitów : 768 kBit/s
Jakość : Wysoka
Dodawanie znaczników ID3 : Nie
Kompresor linii poleceń : C:\Program Files\Exact Audio Copy\FLAC\FLAC.EXE
Dodatkowe opcje linii poleceń : -6 -V -T "ARTIST=%a" -T "TITLE=%t" -T "ALBUM=%g" -T "DATE=%y" -T "TRACKNUMBER=%n" -T "GENRE=%m" -T "COMMENT=%e" %s -o %d
TOC zgranej płyty
Utwór | Początek | Długość | Sektor początkowy | Sektor końcowy
------------------------------------------------------------------
1 | 0:00.00 | 3:48.15 | 0 | 17114
2 | 3:48.15 | 3:58.09 | 17115 | 34973
3 | 7:46.24 | 2:38.07 | 34974 | 46830
4 | 10:24.31 | 6:19.21 | 46831 | 75276
5 | 16:43.52 | 5:41.26 | 75277 | 100877
Stan i błędy zakresu
Wybrany zakres
Ścieżka pliku C:\Users\MARCIN\Music\TORRENTY UDOSTĘPNIONE\Kloq - We're Just Physical (2007) FLAC\Kloq - We're Just Physical.wav
Poziom wysterowania 100.0 %
Jakość zakresu 100.0 %
CRC testowana 950D3D7B
CRC kopii 950D3D7B
Kopia bezbłędna
Nie było błędów
Koniec raportu
Правила, инструкции, FAQ!!!
Торрент  Добавлен [26 июн 2020, 17:54] Скачать торрент Магнет ссылка
Скачать торрент
[ Размер 11.88 КБ / Просмотров 8 ]

Статус
Проверен 
 
Размер  144.13 МБ
Приватный: Нет (DHT включён)
.torrent скачан  0
 


     Отправить личное сообщение
   
Страница 1 из 1
Показать сообщения за:  Поле сортировки  
Начать новую тему Ответить на тему


Сейчас этот форум просматривают: нет зарегистрированных пользователей и гости: 0


Вы не можете начинать темы
Вы не можете отвечать на сообщения
Вы не можете редактировать свои сообщения
Вы не можете удалять свои сообщения
Вы не можете добавлять вложения

Перейти:  
cron