Начать новую тему Ответить на тему
Статистика раздачи
Размер: 1.51 ГБ | Добавлен: 26 июн 2020, 16:55 | Скачали: 0
Сидеров: 0  [0 байт/сек]    Личеров: 0  [0 байт/сек]
Пред. тема | След. тема 

Автор
Сообщение

СообщениеДобавлено: 26 июн 2020, 16:55 

Ответить с цитатой 

Empty / Коллекция
#777Жанр: electro industrial / drum'n'bass
Страна-производитель диска: Australia
Год издания: 2006-2010
Издатель (лейбл): Aphotic Audio
Аудиокодек: FLAC (*.flac)
Тип рипа: image+.cue
Битрейт аудио: lossless
Источник (релизер): Физический носитель
Наличие сканов в содержимом раздачи: да
#777Номер по каталогу: 01080506
Продолжительность: 36:00.03
Треклист:
1. Ghost Beside You [4:11]
2. Torn [5:05]
3. Blue [4:45]
4. Scarred [5:28]
5. Run Down [4:04]
6. Blue (Angeltheory Ascension remix) [5:02]
7. Ghost Beside You (Iammynewt remix) [3:27]
8. Alone [3:58]
Код:
Exact Audio Copy V1.0 beta 3 from 29. August 2011
Отчёт EAC об извлечении, выполненном 14. ноября 2012, 20:54
Empty / Open Aeon
Дисковод: _NEC    DVD_RW ND-3520A   Adapter: 0  ID: 1
Режим чтения                 : Достоверность
Использование точного потока : Да
Отключение кэша аудио        : Да
Использование указателей C2  : Нет
Коррекция смещения при чтении                     : 48
Способность читать области Lead-in и Lead-out     : Нет
Заполнение пропущенных сэмплов тишиной            : Да
Удаление блоков с тишиной в начале и конце        : Нет
При вычислениях CRC использовались нулевые сэмплы : Да
Интерфейс                                         : Установленный внешний ASPI-интерфейс
Выходной формат          : Пользовательский кодировщик
Выбранный битрейт        : 1024 kBit/s
Качество                 : Высокий
Добавление ID3-тега      : Нет
Утилита сжатия           : C:\Program Files\Exact Audio Copy\Flac\flac.exe
Дополнительные параметры : -6 -V -T "Date=%year%" -T "Genre=%genre%" %source%
TOC извлечённого CD
     Трек |   Старт  | Длительность | Начальный сектор | Конечный сектор
    ---------------------------------------------------------------------
       1  |  0:00.00 |    4:11.00   |           0      |      18824
       2  |  4:11.00 |    5:05.00   |       18825      |      41699
       3  |  9:16.00 |    4:45.01   |       41700      |      63075
       4  | 14:01.01 |    5:28.01   |       63076      |      87676
       5  | 19:29.02 |    4:04.00   |       87677      |     105976
       6  | 23:33.02 |    5:02.01   |      105977      |     128627
       7  | 28:35.03 |    3:27.00   |      128628      |     144152
       8  | 32:02.03 |    3:58.00   |      144153      |     162002
Характеристики диапазона извлечения и сообщения об ошибках
Выбранный диапазон
     Имя файла C:\Empty - Open Aeon.wav
     Пиковый уровень 97.7 %
     Скорость извлечения 5.5 X
     Качество диапазона 99.9 %
     CRC теста C28F338E
     CRC копии C28F338E
     Копирование... OK
Ошибок не произошло
AccurateRip: сводка
Трек  1  : извлечено точно (доверие 2)  [C60C7549]  (AR v1)
Трек  2  отсутствует в базе данных
Трек  3  : извлечено точно (доверие 2)  [6091D3CD]  (AR v1)
Трек  4  : извлечено точно (доверие 2)  [49673653]  (AR v1)
Трек  5  отсутствует в базе данных
Трек  6  : извлечено точно (доверие 2)  [A4051C4C]  (AR v1)
Трек  7  отсутствует в базе данных
Трек  8  : извлечено точно (доверие 2)  [DD93A0F5]  (AR v1)
 5 трек(и) скопированы точно
 3 трек(и) не содержатся в базе AccurateRip
Некоторые треки не прошли проверку на точность
Конец отчёта
==== Контрольная сумма отчёта 060D747701380CBC12943C392B6DBCD6BAFC1EE23601B29FFA58B2385D166C71 ====
#777Номер по каталогу: 02290208
Продолжительность: 46:37.51
Треклист:
1. Castrated (Original Edit) [4:38]
2. Alone (Disharmony remix) [4:47]
3. Castrated (Zintek remix) [6:18]
4. Scarred (JVL 7'' Construction remix) [4:00]
5. Torn (Process Void Ripped remix) [7:23]
6. Alone (Pask remix) [5:26]
7. Torn (Searad remix) [5:35]
8. Castrated (In-Tranzit remix) [8:31]
Код:
Exact Audio Copy V1.0 beta 3 from 29. August 2011
Отчёт EAC об извлечении, выполненном 14. ноября 2012, 22:19
Empty / Aeon Xpand
Дисковод: _NEC    DVD_RW ND-3520A   Adapter: 0  ID: 1
Режим чтения                 : Достоверность
Использование точного потока : Да
Отключение кэша аудио        : Да
Использование указателей C2  : Нет
Коррекция смещения при чтении                     : 48
Способность читать области Lead-in и Lead-out     : Нет
Заполнение пропущенных сэмплов тишиной            : Да
Удаление блоков с тишиной в начале и конце        : Нет
При вычислениях CRC использовались нулевые сэмплы : Да
Интерфейс                                         : Установленный внешний ASPI-интерфейс
Выходной формат          : Пользовательский кодировщик
Выбранный битрейт        : 1024 kBit/s
Качество                 : Высокий
Добавление ID3-тега      : Нет
Утилита сжатия           : C:\Program Files\Exact Audio Copy\Flac\flac.exe
Дополнительные параметры : -6 -V -T "Date=%year%" -T "Genre=%genre%" %source%
TOC извлечённого CD
     Трек |   Старт  | Длительность | Начальный сектор | Конечный сектор
    ---------------------------------------------------------------------
       1  |  0:00.00 |    4:38.00   |           0      |      20849
       2  |  4:38.00 |    4:47.00   |       20850      |      42374
       3  |  9:25.00 |    6:18.10   |       42375      |      70734
       4  | 15:43.10 |    4:00.00   |       70735      |      88734
       5  | 19:43.10 |    7:22.47   |       88735      |     121931
       6  | 27:05.57 |    5:26.00   |      121932      |     146381
       7  | 32:31.57 |    5:34.69   |      146382      |     171500
       8  | 38:06.51 |    8:31.00   |      171501      |     209825
Характеристики диапазона извлечения и сообщения об ошибках
Выбранный диапазон
     Имя файла C:\Empty - Aeon Xpand.wav
     Пиковый уровень 100.0 %
     Скорость извлечения 6.3 X
     Качество диапазона 100.0 %
     CRC теста A430AE04
     CRC копии A430AE04
     Копирование... OK
Ошибок не произошло
AccurateRip: сводка
Трек  1  : извлечено точно (доверие 1)  [819983E7]  (AR v1)
Трек  2  : извлечено точно (доверие 1)  [A66641D2]  (AR v1)
Трек  3  : извлечено точно (доверие 1)  [B3CA75C1]  (AR v1)
Трек  4  : извлечено точно (доверие 1)  [562C98CA]  (AR v1)
Трек  5  : извлечено точно (доверие 1)  [74A67261]  (AR v1)
Трек  6  : извлечено точно (доверие 1)  [34A599C9]  (AR v1)
Трек  7  : извлечено точно (доверие 1)  [5E011E34]  (AR v1)
Трек  8  : извлечено точно (доверие 1)  [BBE50030]  (AR v1)
Все треки извлечены точно
Конец отчёта
==== Контрольная сумма отчёта FE73E721CBB4569C3E72C6F9B008DF8FADA96926F3104EFDB1FC825A353DF42C ====
#777Номер по каталогу: 03121208
Продолжительность: 37:23.59
Треклист:
1. Never Get To You [4:56]
2. Never Get To You (Dismantled remix) [4:09]
3. Forgotten Dreams [5:30]
4. Never Get To You (Pask: Requiem remix) [7:42]
5. Never Get To You (Iammynewt remix) [4:31]
6. King Of Kings [5:55]
7. Never Get To You (Angeltheory: State Of Flux remix) [4:40]
Код:
Exact Audio Copy V1.0 beta 3 from 29. August 2011
Отчёт EAC об извлечении, выполненном 15. ноября 2012, 8:23
Empty / Never Get To You [EP]
Дисковод: _NEC    DVD_RW ND-3520A   Adapter: 0  ID: 1
Режим чтения                 : Достоверность
Использование точного потока : Да
Отключение кэша аудио        : Да
Использование указателей C2  : Нет
Коррекция смещения при чтении                     : 48
Способность читать области Lead-in и Lead-out     : Нет
Заполнение пропущенных сэмплов тишиной            : Да
Удаление блоков с тишиной в начале и конце        : Нет
При вычислениях CRC использовались нулевые сэмплы : Да
Интерфейс                                         : Установленный внешний ASPI-интерфейс
Выходной формат          : Пользовательский кодировщик
Выбранный битрейт        : 1024 kBit/s
Качество                 : Высокий
Добавление ID3-тега      : Нет
Утилита сжатия           : C:\Program Files\Exact Audio Copy\Flac\flac.exe
Дополнительные параметры : -6 -V -T "Date=%year%" -T "Genre=%genre%" %source%
TOC извлечённого CD
     Трек |   Старт  | Длительность | Начальный сектор | Конечный сектор
    ---------------------------------------------------------------------
       1  |  0:00.00 |    4:56.11   |           0      |      22210
       2  |  4:56.11 |    4:09.08   |       22211      |      40893
       3  |  9:05.19 |    5:30.07   |       40894      |      65650
       4  | 14:35.26 |    7:42.17   |       65651      |     100317
       5  | 22:17.43 |    4:31.08   |      100318      |     120650
       6  | 26:48.51 |    5:55.08   |      120651      |     147283
       7  | 32:43.59 |    4:40.00   |      147284      |     168283
Характеристики диапазона извлечения и сообщения об ошибках
Выбранный диапазон
     Имя файла C:\Empty - Never Get To You [EP].wav
     Пиковый уровень 100.0 %
     Скорость извлечения 5.6 X
     Качество диапазона 100.0 %
     CRC теста 832D9723
     CRC копии 832D9723
     Копирование... OK
Ошибок не произошло
AccurateRip: сводка
Трек  1  отсутствует в базе данных
Трек  2  отсутствует в базе данных
Трек  3  отсутствует в базе данных
Трек  4  отсутствует в базе данных
Трек  5  отсутствует в базе данных
Трек  6  отсутствует в базе данных
Трек  7  отсутствует в базе данных
Ни одного трека нет в базе AccurateRip
Конец отчёта
==== Контрольная сумма отчёта D66F91CB0D180D22910A5F520C912706BBCF982D07846977825261535833E04C ====
#777Номер по каталогу: 05080310
Продолжительность: 1:13:58.00
Треклист:
01. Deprivation [3:02]
02. Never Get To You [4:57]
03. The Centre [6:25]
04. Drift [5:46]
05. Inside [5:00]
06. Ignite [4:29]
07. Underground [4:43]
08. Locked [6:02]
09. Forgotten Dreams [5:29]
10. This Regret [5:30]
11. Recognition [6:11]
12. Breathless [5:05]
13. Frames [7:01]
14. Internal [4:21]
Код:
Exact Audio Copy V1.0 beta 3 from 29. August 2011
Отчёт EAC об извлечении, выполненном 14. ноября 2012, 19:39
Empty / Surfacing
Дисковод: _NEC    DVD_RW ND-3520A   Adapter: 0  ID: 1
Режим чтения                 : Достоверность
Использование точного потока : Да
Отключение кэша аудио        : Да
Использование указателей C2  : Нет
Коррекция смещения при чтении                     : 48
Способность читать области Lead-in и Lead-out     : Нет
Заполнение пропущенных сэмплов тишиной            : Да
Удаление блоков с тишиной в начале и конце        : Нет
При вычислениях CRC использовались нулевые сэмплы : Да
Интерфейс                                         : Установленный внешний ASPI-интерфейс
Выходной формат          : Пользовательский кодировщик
Выбранный битрейт        : 1024 kBit/s
Качество                 : Высокий
Добавление ID3-тега      : Нет
Утилита сжатия           : C:\Program Files\Exact Audio Copy\Flac\flac.exe
Дополнительные параметры : -6 -V -T "Date=%year%" -T "Genre=%genre%" %source%
TOC извлечённого CD
     Трек |   Старт  | Длительность | Начальный сектор | Конечный сектор
    ---------------------------------------------------------------------
       1  |  0:00.00 |    3:02.00   |           0      |      13649
       2  |  3:02.00 |    4:56.38   |       13650      |      35887
       3  |  7:58.38 |    6:24.38   |       35888      |      64725
       4  | 14:23.01 |    5:46.00   |       64726      |      90675
       5  | 20:09.01 |    5:00.00   |       90676      |     113175
       6  | 25:09.01 |    4:28.38   |      113176      |     133313
       7  | 29:37.39 |    4:42.38   |      133314      |     154501
       8  | 34:20.02 |    6:02.00   |      154502      |     181651
       9  | 40:22.02 |    5:29.00   |      181652      |     206326
      10  | 45:51.02 |    5:29.38   |      206327      |     231039
      11  | 51:20.40 |    6:10.38   |      231040      |     258827
      12  | 57:31.03 |    5:05.00   |      258828      |     281702
      13  | 62:36.03 |    7:01.00   |      281703      |     313277
      14  | 69:37.03 |    4:20.72   |      313278      |     332849
Характеристики диапазона извлечения и сообщения об ошибках
Выбранный диапазон
     Имя файла C:\Empty - Surfacing.wav
     Пиковый уровень 97.7 %
     Скорость извлечения 3.4 X
     Качество диапазона 99.8 %
     CRC теста 20458397
     CRC копии 20458397
     Копирование... OK
Ошибок не произошло
AccurateRip: сводка
Трек  1  : извлечено точно (доверие 2)  [BB6456AB]  (AR v1)
Трек  2  : извлечено точно (доверие 2)  [3C6C98D8]  (AR v1)
Трек  3  : извлечено точно (доверие 2)  [3BB9258B]  (AR v1)
Трек  4  : извлечено точно (доверие 2)  [E9AC38D6]  (AR v1)
Трек  5  : извлечено точно (доверие 2)  [8E18A01F]  (AR v1)
Трек  6  : извлечено точно (доверие 2)  [C08ABCFF]  (AR v1)
Трек  7  : извлечено точно (доверие 2)  [8824280E]  (AR v1)
Трек  8  : извлечено точно (доверие 2)  [7EFF94FF]  (AR v1)
Трек  9  : извлечено точно (доверие 2)  [6355F4F1]  (AR v1)
Трек 10  : извлечено точно (доверие 2)  [5A9C072B]  (AR v1)
Трек 11  : извлечено точно (доверие 2)  [F5C65756]  (AR v1)
Трек 12  : извлечено точно (доверие 2)  [55A9AD6C]  (AR v1)
Трек 13  : извлечено точно (доверие 2)  [9A574623]  (AR v1)
Трек 14  : извлечено точно (доверие 2)  [BA13AE39]  (AR v1)
Все треки извлечены точно
Конец отчёта
==== Контрольная сумма отчёта 2BDB8ABC678FB38577EC03FDAD8EAE486BB797B51E3ED71D304C13A6A1F5966D ====
Правила, инструкции, FAQ!!!
Торрент  Добавлен [26 июн 2020, 16:55] Скачать торрент Магнет ссылка
Скачать торрент
[ Размер 19.98 КБ / Просмотров 5 ]

Статус
Проверен 
 
Размер  1.51 ГБ
Приватный: Нет (DHT включён)
.torrent скачан  0
 


     Отправить личное сообщение
   
Страница 1 из 1
Показать сообщения за:  Поле сортировки  
Начать новую тему Ответить на тему


Сейчас этот форум просматривают: нет зарегистрированных пользователей и гости: 0


Вы не можете начинать темы
Вы не можете отвечать на сообщения
Вы не можете редактировать свои сообщения
Вы не можете удалять свои сообщения
Вы не можете добавлять вложения

Перейти:  
cron