Начать новую тему Ответить на тему
Статистика раздачи
Размер: 422.31 МБ | Добавлен: 26 июн 2020, 17:21 | Скачали: 0
Сидеров: 0  [0 байт/сек]    Личеров: 0  [0 байт/сек]
Пред. тема | След. тема 

Автор
Сообщение

СообщениеДобавлено: 26 июн 2020, 17:21 

Ответить с цитатой 

[+] Z.e.t.a. X (Zeta X) - 7 Cultures
Жанр: Electro, Industrial
Год выпуска диска: 2005
Производитель диска: Germany
Аудио кодек: FLAC
Тип рипа: image+.cue
Битрейт аудио: lossless
Продолжительность: 00:59:40
Трэклист:
01. INTRO: The End Of A Roman Galley 255 B.C. 4:01
02. 7 Cultures 4:17
03. Signs Of Shock 4:56
04. Planet Earth 5:38
05. When Drugs Are Workin' 4:23
06. [+] Z.e.t.a. X-Files 3:21
07. Foolish 4:08
08. My Kingdom 3:39
09. Crimson Bells 6:12
10. Space Odyssey 4:18
11. Brundle Fly 3:26
12. Cardinal Sins (Remake) 6:08
13 OUTRO: Striga (Non Est Homicida) 5:07
Код:
Exact Audio Copy V0.99 prebeta 5 from 4. May 2009
Отчёт EAC об извлечении, выполненном 6. февраля 2010, 19:29
[+] Z.e.t.a. X / 7 Cultures
Дисковод: Optiarc DVD RW AD-7201S   Adapter: 2  ID: 1
Режим чтения                 : Достоверность
Использование точного потока : Да
Отключение кэша аудио        : Да
Использование указателей C2  : Нет
Коррекция смещения при чтении                     : 48
Способность читать области Lead-in и Lead-out     : Да
Заполнение пропущенных сэмплов тишиной            : Да
Удаление блоков с тишиной в начале и конце        : Нет
При вычислениях CRC использовались нулевые сэмплы : Да
Интерфейс                                         : Встроенный Win32-интерфейс для Win
NT/2000
Выходной формат : Внутренние WAV-операции
Формат сэмплов  : 44.100 Гц; 16 бит; стерео
TOC извлечённого CD
     Трек |   Старт  | Длительность | Начальный сектор | Конечный сектор
    ---------------------------------------------------------------------
       1  |  0:00.00 |    4:01.53   |           0      |      18127
       2  |  4:01.53 |    4:17.56   |       18128      |      37458
       3  |  8:19.34 |    4:56.71   |       37459      |      59729
       4  | 13:16.30 |    5:38.34   |       59730      |      85113
       5  | 18:54.64 |    4:23.67   |       85114      |     104905
       6  | 23:18.56 |    3:21.19   |      104906      |     119999
       7  | 26:40.00 |    4:08.03   |      120000      |     138602
       8  | 30:48.03 |    3:39.24   |      138603      |     155051
       9  | 34:27.27 |    6:12.52   |      155052      |     183003
      10  | 40:40.04 |    4:18.10   |      183004      |     202363
      11  | 44:58.14 |    3:26.18   |      202364      |     217831
      12  | 48:24.32 |    6:08.18   |      217832      |     245449
      13  | 54:32.50 |    5:07.00   |      245450      |     268474
Характеристики диапазона извлечения и сообщения об ошибках
Выбранный диапазон
     Имя файла D:\Раздачи\[+] Z.e.t.a. X - 7 Cultures\[+] Z.e.t.a. X - 7 Cultures.wav
     Пиковый уровень 97.7 %
     Качество диапазона 100.0 %
     CRC теста EC4F22D7
     CRC копии EC4F22D7
     Копирование... OK
Ошибок не произошло
AccurateRip: сводка
Трек  1  нет в базе данных
Трек  2  нет в базе данных
Трек  3  нет в базе данных
Трек  4  нет в базе данных
Трек  5  нет в базе данных
Трек  6  нет в базе данных
Трек  7  нет в базе данных
Трек  8  нет в базе данных
Трек  9  нет в базе данных
Трек 10  нет в базе данных
Трек 11  нет в базе данных
Трек 12  нет в базе данных
Трек 13  нет в базе данных
Ни одного трека нет в базе AccurateRip
Конец отчёта
Код:
Started at: суббота, 06. 02. 2010. - 19:36.46
1 file found
1 -===- D:\Раздачи\[+] Z.e.t.a. X - 7 Cultures\[+] Z.e.t.a. X - 7 Cultures.flac
  Extracted successfully
  Conclusion: this track is CDDA with probability 100%
  Tempfile successfully deleted.
Finished at: суббота, 06. 02. 2010. - 19:43.22 (operation time: 0:06.35)
Label:Dark Music Management
Catalog#:ZETA001-2
Format:CD, Album
Country:Germany
Released:2005
Genre:Electronic
Style:Electro
Side project of FUNKER VOGT
HQ Scans Full Complete
Правила, инструкции, FAQ!!!
Торрент  Добавлен [26 июн 2020, 17:21] Скачать торрент Магнет ссылка
Скачать торрент
[ Размер 17.52 КБ / Просмотров 13 ]

Статус
Проверен 
 
Размер  422.31 МБ
Приватный: Нет (DHT включён)
.torrent скачан  0
 


     Отправить личное сообщение
   
Страница 1 из 1
Показать сообщения за:  Поле сортировки  
Начать новую тему Ответить на тему


Сейчас этот форум просматривают: нет зарегистрированных пользователей и гости: 0


Вы не можете начинать темы
Вы не можете отвечать на сообщения
Вы не можете редактировать свои сообщения
Вы не можете удалять свои сообщения
Вы не можете добавлять вложения

Перейти:  
cron