Начать новую тему Ответить на тему
Статистика раздачи
Размер: 447.04 МБ | Добавлен: 26 июн 2020, 17:28 | Скачали: 0
Сидеров: 0  [0 байт/сек]    Личеров: 0  [0 байт/сек]
Пред. тема | След. тема 

Автор
Сообщение

СообщениеДобавлено: 26 июн 2020, 17:28 

Ответить с цитатой 

XuberX - Intelligent Demise
Жанр: electro industrial
Год выпуска диска: 2008
Производитель диска: (Radio Active Music, USA)
Аудио кодек: FLAC
Тип рипа: image+.cue
Битрейт аудио: lossless
Продолжительность: 58:43.68
Треклист:
01. Ingression [3:20]
02. The World Ends Today [3:55]
03. Intelligent Demise [4:32]
04. Gone [4:59]
05. Hollow [6:02]
06. Solution [6:02]
07. Forgive Forget [4:36]
08. Within Silence [4:54]
09. Blood Debt [4:04]
10. Blackened [4:18]
11. The World Ends Today (Guitar Redux) [3:55]
12. Rogue State 08 [4:16]
13. Lost Inside (Motoko's Mayhem mix by 2501) [3:51]
Источник: Физический носитель
Код:
Exact Audio Copy V0.99 prebeta 5 from 4. May 2009
Отчёт EAC об извлечении, выполненном 19. июля 2010, 20:48
XuberX / Intelligent Demise
Дисковод: Optiarc DVD RW AD-7173A   Adapter: 0  ID: 0
Режим чтения                 : Достоверность
Использование точного потока : Да
Отключение кэша аудио        : Да
Использование указателей C2  : Нет
Коррекция смещения при чтении                     : 48
Способность читать области Lead-in и Lead-out     : Нет
Заполнение пропущенных сэмплов тишиной            : Да
Удаление блоков с тишиной в начале и конце        : Нет
При вычислениях CRC использовались нулевые сэмплы : Да
Интерфейс                                         : Установленный внешний ASPI-интерфейс
Выходной формат          : Пользовательский кодировщик
Выбранный битрейт        : 1024 kBit/s
Качество                 : Высокий
Добавление ID3-тэга      : Нет
Утилита сжатия           : C:\Program Files\Exact Audio Copy\flac.exe
Дополнительные параметры : -6 -V -T "ARTIST=%a" -T "TITLE=%t" -T "ALBUM=%g" -T "DATE=%y" -T "TRACKNUMBER=%n" -T "GENRE=%m" -T "COMMENT=%e" %s -o %d
TOC извлечённого CD
     Трек |   Старт  | Длительность | Начальный сектор | Конечный сектор
    ---------------------------------------------------------------------
       1  |  0:00.00 |    3:20.07   |           0      |      15006
       2  |  3:20.07 |    3:55.34   |       15007      |      32665
       3  |  7:15.41 |    4:32.00   |       32666      |      53065
       4  | 11:47.41 |    4:58.52   |       53066      |      75467
       5  | 16:46.18 |    6:02.00   |       75468      |     102617
       6  | 22:48.18 |    6:02.00   |      102618      |     129767
       7  | 28:50.18 |    4:35.56   |      129768      |     150448
       8  | 33:25.74 |    4:53.70   |      150449      |     172493
       9  | 38:19.69 |    4:03.41   |      172494      |     190759
      10  | 42:23.35 |    4:17.67   |      190760      |     210101
      11  | 46:41.27 |    3:55.34   |      210102      |     227760
      12  | 50:36.61 |    4:15.58   |      227761      |     246943
      13  | 54:52.44 |    3:51.24   |      246944      |     264292
Характеристики диапазона извлечения и сообщения об ошибках
Выбранный диапазон
     Имя файла H:\СКАЧКА\FLAC\1 TORRENT\XuberX - Intelligent Demise.wav
     Пиковый уровень 98.8 %
     Качество диапазона 100.0 %
     CRC теста 3F1ECC15
     CRC копии 3F1ECC15
     Копирование... OK
Ошибок не произошло
AccurateRip: сводка
Трек  1  нет в базе данных
Трек  2  нет в базе данных
Трек  3  нет в базе данных
Трек  4  нет в базе данных
Трек  5  нет в базе данных
Трек  6  нет в базе данных
Трек  7  нет в базе данных
Трек  8  нет в базе данных
Трек  9  нет в базе данных
Трек 10  нет в базе данных
Трек 11  нет в базе данных
Трек 12  нет в базе данных
Трек 13  нет в базе данных
Ни одного трека нет в базе AccurateRip
Конец отчёта
Хочешь скачать, но не можешь из-за отсутствия сидов - пиши в личку!
Правила, инструкции, FAQ!!!
Торрент  Добавлен [26 июн 2020, 17:28] Скачать торрент Магнет ссылка
Скачать торрент
[ Размер 18.48 КБ / Просмотров 9 ]

Статус
Проверен 
 
Размер  447.04 МБ
Приватный: Нет (DHT включён)
.torrent скачан  0
 


     Отправить личное сообщение
   
Страница 1 из 1
Показать сообщения за:  Поле сортировки  
Начать новую тему Ответить на тему


Сейчас этот форум просматривают: нет зарегистрированных пользователей и гости: 0


Вы не можете начинать темы
Вы не можете отвечать на сообщения
Вы не можете редактировать свои сообщения
Вы не можете удалять свои сообщения
Вы не можете добавлять вложения

Перейти:  
cron