Начать новую тему Ответить на тему
Статистика раздачи
Размер: 140.47 МБ | Добавлен: 26 июн 2020, 17:00 | Скачали: 0
Сидеров: 0  [0 байт/сек]    Личеров: 0  [0 байт/сек]
Пред. тема | След. тема 

Автор
Сообщение

СообщениеДобавлено: 26 июн 2020, 17:00 

Ответить с цитатой 

Under The Noise / Future Automatic
Жанр: Electro-Industrial
Страна-производитель диска: Germany
Год издания диска: 1994
Издатель (лейбл): COP International
Номер по каталогу: COP CD013
Аудио кодек: FLAC (*.flac)
Тип рипа: tracks+.cue
Битрейт аудио: lossless
Продолжительность: 19:22
Источник (релизер): из личной коллекции
Наличие сканов в содержимом раздачи: да
Треклист:
1. Mind Machine (5:20)
2. Manna (4:32)
3. Future Automatic [Proton Mix] (9:30)
Код:
Exact Audio Copy V0.99 prebeta 4 from 23. January 2008
EAC extraction logfile from 18. December 2010, 16:16
Under The Noise / Future Automatic
Used drive  : Optiarc BD ROM BC-5500A   Adapter: 0  ID: 0
Read mode               : Secure
Utilize accurate stream : Yes
Defeat audio cache      : Yes
Make use of C2 pointers : No
Read offset correction                      : 48
Overread into Lead-In and Lead-Out          : No
Fill up missing offset samples with silence : Yes
Delete leading and trailing silent blocks   : No
Null samples used in CRC calculations       : Yes
Used interface                              : Native Win32 interface for Win NT & 2000
Gap handling                                : Appended to previous track
Used output format              : User Defined Encoder
Selected bitrate                : 128 kBit/s
Quality                         : High
Add ID3 tag                     : No
Command line compressor         : C:\Program Files\Exact Audio Copy\Flac\flac.exe
Additional command line options : -8 -V -T "ARTIST=%a" -T "TITLE=%t" -T "ALBUM=%g" -T "DATE=%y" -T "TRACKNUMBER=%n" -T "GENRE=%m" -T "COMMENT=EAC FLAC -8" %s
TOC of the extracted CD
     Track |   Start  |  Length  | Start sector | End sector
    ---------------------------------------------------------
        1  |  0:00.00 |  5:20.10 |         0    |    24009
        2  |  5:20.10 |  4:32.20 |     24010    |    44429
        3  |  9:52.30 |  9:30.57 |     44430    |    87236
Track  1
     Filename D:\Under The Noise - 1994 - Future Automatic\01 - Mind Machine.wav
     Pre-gap length  0:00:02.00
     Peak level 98.0 %
     Track quality 99.9 %
     Test CRC 5EFE9ADB
     Copy CRC 5EFE9ADB
     Accurately ripped (confidence 1)  [0B08BBBF]
     Copy OK
Track  2
     Filename D:\Under The Noise - 1994 - Future Automatic\02 - Manna.wav
     Peak level 95.7 %
     Track quality 100.0 %
     Test CRC AD2679ED
     Copy CRC AD2679ED
     Accurately ripped (confidence 1)  [020C6464]
     Copy OK
Track  3
     Filename D:\Under The Noise - 1994 - Future Automatic\03 - Future Automatic [Proton Mix].wav
     Peak level 93.1 %
     Track quality 100.0 %
     Test CRC 56F27D71
     Copy CRC 56F27D71
     Accurately ripped (confidence 1)  [EBD76C30]
     Copy OK
All tracks accurately ripped
No errors occurred
End of status report
Код:
REM GENRE Industrial
REM DATE 1994
REM DISCID 1B048B03
REM COMMENT "ExactAudioCopy v0.99pb4"
PERFORMER "Under The Noise"
TITLE "Future Automatic"
FILE "01 - Mind Machine.flac" WAVE
  TRACK 01 AUDIO
    TITLE "Mind Machine"
    PERFORMER "Under The Noise"
    INDEX 01 00:00:00
FILE "02 - Manna.flac" WAVE
  TRACK 02 AUDIO
    TITLE "Manna"
    PERFORMER "Under The Noise"
    INDEX 01 00:00:00
FILE "03 - Future Automatic [Proton Mix].flac" WAVE
  TRACK 03 AUDIO
    TITLE "Future Automatic [Proton Mix]"
    PERFORMER "Under The Noise"
    INDEX 01 00:00:00
Правила, инструкции, FAQ!!!
Торрент  Добавлен [26 июн 2020, 17:00] Скачать торрент Магнет ссылка
Скачать торрент
[ Размер 11.92 КБ / Просмотров 2 ]

Статус
Проверен 
 
Размер  140.47 МБ
Приватный: Нет (DHT включён)
.torrent скачан  0
 


     Отправить личное сообщение
   
Страница 1 из 1
Показать сообщения за:  Поле сортировки  
Начать новую тему Ответить на тему


Сейчас этот форум просматривают: нет зарегистрированных пользователей и гости: 0


Вы не можете начинать темы
Вы не можете отвечать на сообщения
Вы не можете редактировать свои сообщения
Вы не можете удалять свои сообщения
Вы не можете добавлять вложения

Перейти:  
cron