Начать новую тему Ответить на тему
Статистика раздачи
Размер: 450.9 МБ | Добавлен: 26 июн 2020, 18:00 | Скачали: 0
Сидеров: 0  [0 байт/сек]    Личеров: 0  [0 байт/сек]
Пред. тема | След. тема 

Автор
Сообщение

СообщениеДобавлено: 26 июн 2020, 18:00 

Ответить с цитатой 

Recently Deceased - Barren Inc.
Жанр: Electro, Industrial, Trip Hop
Год выпуска диска: 2006
Производитель диска: Germany
Аудио кодек: FLAC
Тип рипа: image+.cue
Битрейт аудио: lossless
Продолжительность: 56:41
Трэклист:
01. Escape From The Third Mind (3:33)
02. Secret (4:06)
03. Like On A Killer Way (4:53)
04. Rentgen (6:00)
05. The Hunter (3:57)
06. The Wardrobe Of Abyss (4:56)
07. Running Of Innocence (4:13)
08. Staying Devoted (5:43)
09. Enslave (4:23)
10. The Head On The Plate (4:49)
11. Metah (7:56)
12. 3071 (2:04)
Код:
Exact Audio Copy V0.99 prebeta 5 from 4. May 2009
Отчёт EAC об извлечении, выполненном 20. февраля 2010, 15:34
Recently Deceased / Barren Inc.
Дисковод: ATAPI   iHAS124   Y   Adapter: 1  ID: 1
Режим чтения                 : Достоверность
Использование точного потока : Да
Отключение кэша аудио        : Да
Использование указателей C2  : Нет
Коррекция смещения при чтении                     : 48
Способность читать области Lead-in и Lead-out     : Нет
Заполнение пропущенных сэмплов тишиной            : Да
Удаление блоков с тишиной в начале и конце        : Нет
При вычислениях CRC использовались нулевые сэмплы : Да
Интерфейс                                         : Встроенный Win32-интерфейс для Win NT/2000
Выходной формат : Внутренние WAV-операции
Формат сэмплов  : 44.100 Гц; 16 бит; стерео
TOC извлечённого CD
     Трек |   Старт  | Длительность | Начальный сектор | Конечный сектор
    ---------------------------------------------------------------------
       1  |  0:00.00 |    3:33.66   |           0      |      16040
       2  |  3:33.66 |    4:06.28   |       16041      |      34518
       3  |  7:40.19 |    4:53.63   |       34519      |      56556
       4  | 12:34.07 |    6:00.60   |       56557      |      83616
       5  | 18:34.67 |    3:57.34   |       83617      |     101425
       6  | 22:32.26 |    4:56.26   |      101426      |     123651
       7  | 27:28.52 |    4:13.67   |      123652      |     142693
       8  | 31:42.44 |    5:43.66   |      142694      |     168484
       9  | 37:26.35 |    4:23.65   |      168485      |     188274
      10  | 41:50.25 |    4:49.55   |      188275      |     210004
      11  | 46:40.05 |    7:56.65   |      210005      |     245769
      12  | 54:36.70 |    2:04.18   |      245770      |     255087
Характеристики диапазона извлечения и сообщения об ошибках
Выбранный диапазон
     Имя файла E:\! РАЗДАЧИ\Recently Deceased - Barren Inc\Recently Deceased - Barren Inc..wav
     Пиковый уровень 100.0 %
     Качество диапазона 100.0 %
     CRC теста A474ED45
     CRC копии A474ED45
     Копирование... OK
Ошибок не произошло
AccurateRip: сводка
Трек  1  нет в базе данных
Трек  2  нет в базе данных
Трек  3  нет в базе данных
Трек  4  нет в базе данных
Трек  5  нет в базе данных
Трек  6  нет в базе данных
Трек  7  нет в базе данных
Трек  8  нет в базе данных
Трек  9  нет в базе данных
Трек 10  нет в базе данных
Трек 11  нет в базе данных
Трек 12  нет в базе данных
Ни одного трека нет в базе AccurateRip
Конец отчёта
Доп. информация: (c) 2006 Mental Ulcer Forges
ULC 11
сканы 300dpi с автографами участников в наличии
Правила, инструкции, FAQ!!!
Торрент  Добавлен [26 июн 2020, 18:00] Скачать торрент Магнет ссылка
Скачать торрент
[ Размер 36.62 КБ / Просмотров 4 ]

Статус
Проверен 
 
Размер  450.9 МБ
Приватный: Нет (DHT включён)
.torrent скачан  0
 


     Отправить личное сообщение
   
Страница 1 из 1
Показать сообщения за:  Поле сортировки  
Начать новую тему Ответить на тему


Сейчас этот форум просматривают: нет зарегистрированных пользователей и гости: 0


Вы не можете начинать темы
Вы не можете отвечать на сообщения
Вы не можете редактировать свои сообщения
Вы не можете удалять свои сообщения
Вы не можете добавлять вложения

Перейти:  
cron