Начать новую тему Ответить на тему
Статистика раздачи
Размер: 363.62 МБ | Добавлен: 26 июн 2020, 16:57 | Скачали: 0
Сидеров: 0  [0 байт/сек]    Личеров: 0  [0 байт/сек]
Пред. тема | След. тема 

Автор
Сообщение

СообщениеДобавлено: 26 июн 2020, 16:57 

Ответить с цитатой 

Thirteenth Exile / Assorted Chaos And Broken Machinery
Жанр: Electro, Industrial
Страна-производитель диска: Sweden
Год издания: 2005
Издатель (лейбл): Prototyp / Memento Materia
Номер по каталогу: TYPCD 25
Страна: Sweden
Аудиокодек: FLAC (*.flac)
Тип рипа: image+.cue
Битрейт аудио: lossless
Продолжительность: 0:43:49.10
Источник (релизер): CD из личной коллекции.
Наличие сканов в содержимом раздачи: да
Треклист:
01. Prologue 1:38
02. No More Regrets 3:09
03. Diseasespreader 3:59
04. Superficial World 3:49
05. Generation Hate 4:09
06. Rejection 3:59
07. Redeemer 4:03
08. Stagnation 2:43
09. Zone Of Hallucinations 4:41
10. Wounds 3:47
11. In Murder 5:51
12. Epilogue 2:01
Discogs
Код:
Exact Audio Copy V1.0 beta 3 from 29. August 2011
Отчёт EAC об извлечении, выполненном 13. декабря 2011, 12:22
Thirteenth Exile / Assorted Chaos And Broken Machinery
Дисковод: TSSTcorpCDDVDW TS-L632H   Adapter: 0  ID: 0
Режим чтения                 : Достоверность
Использование точного потока : Да
Отключение кэша аудио        : Да
Использование указателей C2  : Нет
Коррекция смещения при чтении                     : 6
Способность читать области Lead-in и Lead-out     : Нет
Заполнение пропущенных сэмплов тишиной            : Да
Удаление блоков с тишиной в начале и конце        : Нет
При вычислениях CRC использовались нулевые сэмплы : Да
Интерфейс                                         : Встроенный Win32-интерфейс для Win NT/2000
Выходной формат          : Пользовательский кодировщик
Выбранный битрейт        : 1024 kBit/s
Качество                 : Высокий
Добавление ID3-тега      : Нет
Утилита сжатия           : C:\Program Files\Exact Audio Copy\FLAC\FLAC.EXE
Дополнительные параметры : -6 -V -T "ARTIST=%artist%" -T "TITLE=%title%" -T "ALBUM=%albumtitle%" -T "DATE=%year%" -T "TRACKNUMBER=%tracknr%" -T "GENRE=%genre%" -T "COMMENT=%comment%" -T "BAND=%albuminterpret%" -T "ALBUMARTIST=%albuminterpret%" -T "COMPOSER=%composer%" %haslyrics%--tag-from-file=LYRICS="%lyricsfile%"%haslyrics% -T "DISCNUMBER=%cdnumber%" -T "TOTALDISCS=%totalcds%" -T "TOTALTRACKS=%numtracks%" %hascover%--picture="%coverfile%"%hascover% %source% -o %dest%
TOC извлечённого CD
     Трек |   Старт  | Длительность | Начальный сектор | Конечный сектор
    ---------------------------------------------------------------------
       1  |  0:00.00 |    1:37.50   |           0      |       7324
       2  |  1:37.50 |    3:09.15   |        7325      |      21514
       3  |  4:46.65 |    3:59.35   |       21515      |      39474
       4  |  8:46.25 |    3:49.05   |       39475      |      56654
       5  | 12:35.30 |    4:08.67   |       56655      |      75321
       6  | 16:44.22 |    4:03.53   |       75322      |      93599
       7  | 20:48.00 |    3:59.25   |       93600      |     111549
       8  | 24:47.25 |    2:42.60   |      111550      |     123759
       9  | 27:30.10 |    4:41.00   |      123760      |     144834
      10  | 32:11.10 |    3:46.40   |      144835      |     161824
      11  | 35:57.50 |    5:50.59   |      161825      |     188133
      12  | 41:48.34 |    2:00.51   |      188134      |     197184
Характеристики диапазона извлечения и сообщения об ошибках
Выбранный диапазон
     Имя файла C:\Users\Алексей\Desktop\iPOD\Thirteenth Exile - Assorted Chaos And Broken Machinery.wav
     Пиковый уровень 99.4 %
     Скорость извлечения 3.8 X
     Качество диапазона 99.9 %
     CRC теста 7462A5E7
     CRC копии 7462A5E7
     Копирование... OK
Ошибок не произошло
AccurateRip: сводка
Трек  1  точность не определена (достоверность 1)  [D98FF595], AccurateRip вернул [FAD1B12E]  (AR v2)
Трек  2  точность не определена (достоверность 1)  [4BF17FD9], AccurateRip вернул [BD25ACDB]  (AR v2)
Трек  3  точность не определена (достоверность 1)  [DF7BCE11], AccurateRip вернул [06998B46]  (AR v2)
Трек  4  точность не определена (достоверность 1)  [DCF04422], AccurateRip вернул [B1A1A8EF]  (AR v2)
Трек  5  точность не определена (достоверность 1)  [9A761235], AccurateRip вернул [C02CB482]  (AR v2)
Трек  6  точность не определена (достоверность 1)  [989DC593], AccurateRip вернул [6CB688D1]  (AR v2)
Трек  7  точность не определена (достоверность 1)  [25B62C51], AccurateRip вернул [6BC55387]  (AR v2)
Трек  8  точность не определена (достоверность 1)  [A3D728DB], AccurateRip вернул [59ECC516]  (AR v2)
Трек  9  точность не определена (достоверность 1)  [7AE0E7E8], AccurateRip вернул [DDF3C6E5]  (AR v2)
Трек 10  точность не определена (достоверность 1)  [4489AF83], AccurateRip вернул [B9A0C286]  (AR v2)
Трек 11  точность не определена (достоверность 1)  [51640D6F], AccurateRip вернул [30F09AD7]  (AR v2)
Трек 12  точность не определена (достоверность 1)  [4F24688E], AccurateRip вернул [32A002CD]  (AR v2)
Ни один трек не прошёл проверки на точность
В вашей базе может быть иной вариант штамповки диска
Конец отчёта
==== Контрольная сумма отчёта 9DC6C26D956C4C6CF289B2B79AC9365475A97C315A3DD1D06FC17676F9E85F80 ====
Код:
REM GENRE Industrial
REM DATE 2005
REM DISCID A40A450C
REM COMMENT "ExactAudioCopy v1.0b3"
PERFORMER "Thirteenth Exile"
TITLE "Assorted Chaos And Broken Machinery"
FILE "Thirteenth Exile - Assorted Chaos And Broken Machinery.flac" WAVE
  TRACK 01 AUDIO
    TITLE "Prologue"
    PERFORMER "Thirteenth Exile"
    INDEX 01 00:00:00
  TRACK 02 AUDIO
    TITLE "No More Regrets"
    PERFORMER "Thirteenth Exile"
    INDEX 01 01:37:50
  TRACK 03 AUDIO
    TITLE "Diseasespreader"
    PERFORMER "Thirteenth Exile"
    INDEX 00 04:45:55
    INDEX 01 04:46:65
  TRACK 04 AUDIO
    TITLE "Superficial World"
    PERFORMER "Thirteenth Exile"
    INDEX 00 08:44:62
    INDEX 01 08:46:25
  TRACK 05 AUDIO
    TITLE "Generation Hate"
    PERFORMER "Thirteenth Exile"
    INDEX 01 12:35:30
  TRACK 06 AUDIO
    TITLE "Redeemer"
    PERFORMER "Thirteenth Exile"
    INDEX 00 16:42:30
    INDEX 01 16:44:22
  TRACK 07 AUDIO
    TITLE "Rejection"
    PERFORMER "Thirteenth Exile"
    INDEX 01 20:48:00
  TRACK 08 AUDIO
    TITLE "Stagnation"
    PERFORMER "Thirteenth Exile"
    INDEX 01 24:47:25
  TRACK 09 AUDIO
    TITLE "Zone Of Hallucinations"
    PERFORMER "Thirteenth Exile"
    INDEX 00 27:28:30
    INDEX 01 27:30:10
  TRACK 10 AUDIO
    TITLE "Wounds"
    PERFORMER "Thirteenth Exile"
    INDEX 00 32:09:25
    INDEX 01 32:11:10
  TRACK 11 AUDIO
    TITLE "In Murder"
    PERFORMER "Thirteenth Exile"
    INDEX 00 35:55:37
    INDEX 01 35:57:50
  TRACK 12 AUDIO
    TITLE "Epilogue"
    PERFORMER "Thirteenth Exile"
    INDEX 01 41:48:34
Код:
[url=https://fastpic.ru/view/35/2012/0426/feb0687ef3aa5064cb299398d42c43c3.jpg.html][img]http://i35.fastpic.ru/thumb/2012/0426/c3/feb0687ef3aa5064cb299398d42c43c3.jpeg[/img][/url][url=https://fastpic.ru/view/34/2012/0426/197b94bddda8f46f6e7267e13b31d00b.jpg.html][img]http://i34.fastpic.ru/thumb/2012/0426/0b/197b94bddda8f46f6e7267e13b31d00b.jpeg[/img][/url][url=https://fastpic.ru/view/34/2012/0426/fdc13a74b31aac9c48509a169c4248c4.jpg.html][img]http://i34.fastpic.ru/thumb/2012/0426/c4/fdc13a74b31aac9c48509a169c4248c4.jpeg[/img][/url][url=https://fastpic.ru/view/37/2012/0426/da5ce3ba1cf270544559d0d6ba1bb247.jpg.html][img]http://i37.fastpic.ru/thumb/2012/0426/47/da5ce3ba1cf270544559d0d6ba1bb247.jpeg[/img][/url]
Правила, инструкции, FAQ!!!
Торрент  Добавлен [26 июн 2020, 16:57] Скачать торрент Магнет ссылка
Скачать торрент
[ Размер 15.59 КБ / Просмотров 4 ]

Статус
Проверен 
 
Размер  363.62 МБ
Приватный: Нет (DHT включён)
.torrent скачан  0
 


     Отправить личное сообщение
   
Страница 1 из 1
Показать сообщения за:  Поле сортировки  
Начать новую тему Ответить на тему


Сейчас этот форум просматривают: нет зарегистрированных пользователей и гости: 0


Вы не можете начинать темы
Вы не можете отвечать на сообщения
Вы не можете редактировать свои сообщения
Вы не можете удалять свои сообщения
Вы не можете добавлять вложения

Перейти:  
cron