Начать новую тему Ответить на тему
Статистика раздачи
Размер: 377.92 МБ | Добавлен: 26 июн 2020, 20:19 | Скачали: 0
Сидеров: 0  [0 байт/сек]    Личеров: 0  [0 байт/сек]
Пред. тема | След. тема 

Автор
Сообщение

СообщениеДобавлено: 26 июн 2020, 20:19 

Ответить с цитатой 

The Strand - Diatom
Жанр: Electro, Industrial
Страна-производитель диска: USA
Год издания диска: 2004
Издатель (лейбл): Not On Label
Номер по каталогу: none
Страна: USA
Аудио кодек: FLAC (*.flac)
Тип рипа: tracks+.cue
Битрейт аудио: lossless
Продолжительность: 54:45.493
Источник (релизер): What.CD
Наличие сканов в содержимом раздачи: нет
Треклист:
1 Never Fail 6:49
2 You Bet Right 5:41
3 Crawling 5:59
4 Shut Your Face 4:16
5 Onslaught 2:37
6 Haunted 5:26
7 Run Or Escape 4:25
8 Sex And Liquor 4:29
9 Confined 4:34
10 Honest Moment 6:45
11 My Inspection 3:42
Если у кого имеются другие альбомы этой команды - сердечно прошу поделиться...
Лучшая ваша благодарность за раздачу - отзывы об альбоме!
Код:
X Lossless Decoder version 20100401 (117.0)
XLD extraction logfile from 2010-04-04 23:03:09 -0400
The Strand / Diatom
Used drive : MATSHITA DVD-R   UJ-868 (revision KB19)
Use cdparanoia mode     : YES (CDParanoia III 10.2 engine)
Disable audio cache     : OK for the drive with cache less than 2750KB
Make use of C2 pointers : NO
Read offset correction  : 102
Max retry count         : 100
TOC of the extracted CD
     Track |   Start  |  Length  | Start sector | End sector
    ---------------------------------------------------------
        1  | 00:00:00 | 06:49:40 |         0    |    30714
        2  | 06:49:40 | 05:41:35 |     30715    |    56324
        3  | 12:31:00 | 05:58:66 |     56325    |    83240
        4  | 18:29:66 | 04:15:63 |     83241    |   102428
        5  | 22:45:54 | 02:37:11 |    102429    |   114214
        6  | 25:22:65 | 05:26:28 |    114215    |   138692
        7  | 30:49:18 | 04:24:70 |    138693    |   158562
        8  | 35:14:13 | 04:28:71 |    158563    |   178733
        9  | 39:43:09 | 04:34:24 |    178734    |   199307
       10  | 44:17:33 | 06:45:23 |    199308    |   229705
       11  | 51:02:56 | 03:42:56 |    229706    |   246411
Track 01
    Filename : /Users/thegleek/Music/RIPPED/01 - Never Fail.flac
    Pre-gap length : 00:02:00
    CRC32 hash (test run)  : C9EE4792
    CRC32 hash             : C9EE4792
    CRC32 hash (skip zero) : E67BBDB2
    AccurateRip signature  : 781E63D2
        ->Track not present in AccurateRip database.
    Statistics
        Read error                           : 0
        Skipped (treated as error)           : 0
        Edge jitter error (maybe fixed)      : 0
        Atom jitter error (maybe fixed)      : 0
        Drift error (maybe fixed)            : 0
        Dropped bytes error (maybe fixed)    : 0
        Duplicated bytes error (maybe fixed) : 0
        Inconsistency in error sectors       : 0
Track 02
    Filename : /Users/thegleek/Music/RIPPED/02 - You Bet Right.flac
    Pre-gap length : 00:02:00
    CRC32 hash (test run)  : 640B2D01
    CRC32 hash             : 640B2D01
    CRC32 hash (skip zero) : FD66362D
    AccurateRip signature  : FF3D3C33
        ->Track not present in AccurateRip database.
    Statistics
        Read error                           : 0
        Skipped (treated as error)           : 0
        Edge jitter error (maybe fixed)      : 0
        Atom jitter error (maybe fixed)      : 0
        Drift error (maybe fixed)            : 0
        Dropped bytes error (maybe fixed)    : 0
        Duplicated bytes error (maybe fixed) : 0
        Inconsistency in error sectors       : 0
Track 03
    Filename : /Users/thegleek/Music/RIPPED/03 - Crawling.flac
    Pre-gap length : 00:02:00
    CRC32 hash (test run)  : 70363CC6
    CRC32 hash             : 70363CC6
    CRC32 hash (skip zero) : 2E49A2D5
    AccurateRip signature  : 2CE6ED80
        ->Track not present in AccurateRip database.
    Statistics
        Read error                           : 0
        Skipped (treated as error)           : 0
        Edge jitter error (maybe fixed)      : 0
        Atom jitter error (maybe fixed)      : 0
        Drift error (maybe fixed)            : 0
        Dropped bytes error (maybe fixed)    : 0
        Duplicated bytes error (maybe fixed) : 0
        Inconsistency in error sectors       : 0
Track 04
    Filename : /Users/thegleek/Music/RIPPED/04 - Shut Your Face.flac
    Pre-gap length : 00:02:00
    CRC32 hash (test run)  : 0BB2BFFC
    CRC32 hash             : 0BB2BFFC
    CRC32 hash (skip zero) : F34C57AE
    AccurateRip signature  : A62E7344
        ->Track not present in AccurateRip database.
    Statistics
        Read error                           : 0
        Skipped (treated as error)           : 0
        Edge jitter error (maybe fixed)      : 0
        Atom jitter error (maybe fixed)      : 0
        Drift error (maybe fixed)            : 0
        Dropped bytes error (maybe fixed)    : 0
        Duplicated bytes error (maybe fixed) : 0
        Inconsistency in error sectors       : 0
Track 05
    Filename : /Users/thegleek/Music/RIPPED/05 - Onslaught.flac
    Pre-gap length : 00:02:00
    CRC32 hash (test run)  : EF3D6F19
    CRC32 hash             : EF3D6F19
    CRC32 hash (skip zero) : 760A9FFC
    AccurateRip signature  : 4DD22856
        ->Track not present in AccurateRip database.
    Statistics
        Read error                           : 0
        Skipped (treated as error)           : 0
        Edge jitter error (maybe fixed)      : 0
        Atom jitter error (maybe fixed)      : 0
        Drift error (maybe fixed)            : 0
        Dropped bytes error (maybe fixed)    : 0
        Duplicated bytes error (maybe fixed) : 0
        Inconsistency in error sectors       : 0
Track 06
    Filename : /Users/thegleek/Music/RIPPED/06 - Haunted.flac
    Pre-gap length : 00:02:00
    CRC32 hash (test run)  : 6B610FB1
    CRC32 hash             : 6B610FB1
    CRC32 hash (skip zero) : 756A91EB
    AccurateRip signature  : E597F029
        ->Track not present in AccurateRip database.
    Statistics
        Read error                           : 0
        Skipped (treated as error)           : 0
        Edge jitter error (maybe fixed)      : 0
        Atom jitter error (maybe fixed)      : 0
        Drift error (maybe fixed)            : 0
        Dropped bytes error (maybe fixed)    : 0
        Duplicated bytes error (maybe fixed) : 0
        Inconsistency in error sectors       : 0
Track 07
    Filename : /Users/thegleek/Music/RIPPED/07 - Run or Escape.flac
    Pre-gap length : 00:02:00
    CRC32 hash (test run)  : 0A1FA549
    CRC32 hash             : 0A1FA549
    CRC32 hash (skip zero) : F397DAAB
    AccurateRip signature  : 91DE53EB
        ->Track not present in AccurateRip database.
    Statistics
        Read error                           : 0
        Skipped (treated as error)           : 0
        Edge jitter error (maybe fixed)      : 0
        Atom jitter error (maybe fixed)      : 0
        Drift error (maybe fixed)            : 0
        Dropped bytes error (maybe fixed)    : 0
        Duplicated bytes error (maybe fixed) : 0
        Inconsistency in error sectors       : 0
Track 08
    Filename : /Users/thegleek/Music/RIPPED/08 - Sex and Liquor.flac
    Pre-gap length : 00:02:00
    CRC32 hash (test run)  : 99535512
    CRC32 hash             : 99535512
    CRC32 hash (skip zero) : 1E1BCB30
    AccurateRip signature  : F0AA2619
        ->Track not present in AccurateRip database.
    Statistics
        Read error                           : 0
        Skipped (treated as error)           : 0
        Edge jitter error (maybe fixed)      : 0
        Atom jitter error (maybe fixed)      : 0
        Drift error (maybe fixed)            : 0
        Dropped bytes error (maybe fixed)    : 0
        Duplicated bytes error (maybe fixed) : 0
        Inconsistency in error sectors       : 0
Track 09
    Filename : /Users/thegleek/Music/RIPPED/09 - Confined.flac
    Pre-gap length : 00:02:00
    CRC32 hash (test run)  : 13DF9340
    CRC32 hash             : 13DF9340
    CRC32 hash (skip zero) : 58E79F14
    AccurateRip signature  : A0B1A756
        ->Track not present in AccurateRip database.
    Statistics
        Read error                           : 0
        Skipped (treated as error)           : 0
        Edge jitter error (maybe fixed)      : 0
        Atom jitter error (maybe fixed)      : 0
        Drift error (maybe fixed)            : 0
        Dropped bytes error (maybe fixed)    : 0
        Duplicated bytes error (maybe fixed) : 0
        Inconsistency in error sectors       : 0
Track 10
    Filename : /Users/thegleek/Music/RIPPED/10 - Honest Moment.flac
    Pre-gap length : 00:02:00
    CRC32 hash (test run)  : 9252562E
    CRC32 hash             : 9252562E
    CRC32 hash (skip zero) : 0E4ADAD9
    AccurateRip signature  : FEC8A9DE
        ->Track not present in AccurateRip database.
    Statistics
        Read error                           : 0
        Skipped (treated as error)           : 0
        Edge jitter error (maybe fixed)      : 0
        Atom jitter error (maybe fixed)      : 0
        Drift error (maybe fixed)            : 0
        Dropped bytes error (maybe fixed)    : 0
        Duplicated bytes error (maybe fixed) : 0
        Inconsistency in error sectors       : 0
Track 11
    Filename : /Users/thegleek/Music/RIPPED/11 - My Inspection.flac
    Pre-gap length : 00:02:00
    CRC32 hash (test run)  : 10FA7C45
    CRC32 hash             : 10FA7C45
    CRC32 hash (skip zero) : 871640D3
    AccurateRip signature  : 2C23BD63
        ->Track not present in AccurateRip database.
    Statistics
        Read error                           : 0
        Skipped (treated as error)           : 0
        Edge jitter error (maybe fixed)      : 0
        Atom jitter error (maybe fixed)      : 0
        Drift error (maybe fixed)            : 0
        Dropped bytes error (maybe fixed)    : 0
        Duplicated bytes error (maybe fixed) : 0
        Inconsistency in error sectors       : 0
No errors occurred
End of status report
Код:
TITLE "Diatom"
PERFORMER "The Strand"
REM GENRE "Industrial"
REM DATE "Diatom"
FILE "01 - Never Fail.wav" WAVE
  TRACK 01 AUDIO
    TITLE "Never Fail"
    INDEX 01 00:00:00
  TRACK 02 AUDIO
    TITLE "You Bet Right"
    INDEX 00 06:47:40
FILE "02 - You Bet Right.wav" WAVE
    INDEX 01 00:00:00
  TRACK 03 AUDIO
    TITLE "Crawling"
    INDEX 00 05:39:35
FILE "03 - Crawling.wav" WAVE
    INDEX 01 00:00:00
  TRACK 04 AUDIO
    TITLE "Shut Your Face"
    INDEX 00 05:56:66
FILE "04 - Shut Your Face.wav" WAVE
    INDEX 01 00:00:00
  TRACK 05 AUDIO
    TITLE "Onslaught"
    INDEX 00 04:13:63
FILE "05 - Onslaught.wav" WAVE
    INDEX 01 00:00:00
  TRACK 06 AUDIO
    TITLE "Haunted"
    INDEX 00 02:35:11
FILE "06 - Haunted.wav" WAVE
    INDEX 01 00:00:00
  TRACK 07 AUDIO
    TITLE "Run or Escape"
    INDEX 00 05:24:28
FILE "07 - Run or Escape.wav" WAVE
    INDEX 01 00:00:00
  TRACK 08 AUDIO
    TITLE "Sex and Liquor"
    INDEX 00 04:22:70
FILE "08 - Sex and Liquor.wav" WAVE
    INDEX 01 00:00:00
  TRACK 09 AUDIO
    TITLE "Confined"
    INDEX 00 04:26:71
FILE "09 - Confined.wav" WAVE
    INDEX 01 00:00:00
  TRACK 10 AUDIO
    TITLE "Honest Moment"
    INDEX 00 04:32:24
FILE "10 - Honest Moment.wav" WAVE
    INDEX 01 00:00:00
  TRACK 11 AUDIO
    TITLE "My Inspection"
    INDEX 00 06:43:23
FILE "11 - My Inspection.wav" WAVE
    INDEX 01 00:00:00
Код:
AUDIOCHECKER v2.0 beta (build 457) - by Dester - opdester@freemail.hu
~~~~~~~~~~~~~~~~~~~~~~~~~~~~~~~~~~
Started at: ñóááîòà, 11. 12. 2010. - 12:19.35
11 files found
01 -===- H:\[Music (lossless)]\The Strand - [2004] - Diatom\01 - Never Fail.flac
  Extracted successfully
  Conclusion: this track is CDDA with probability 100%
  Tempfile successfully deleted.
02 -===- H:\[Music (lossless)]\The Strand - [2004] - Diatom\02 - You Bet Right.flac
  Extracted successfully
  Conclusion: this track is CDDA with probability 100%
  Tempfile successfully deleted.
03 -===- H:\[Music (lossless)]\The Strand - [2004] - Diatom\03 - Crawling.flac
  Extracted successfully
  Conclusion: this track is CDDA with probability 100%
  Tempfile successfully deleted.
04 -===- H:\[Music (lossless)]\The Strand - [2004] - Diatom\04 - Shut Your Face.flac
  Extracted successfully
  Conclusion: this track is CDDA with probability 100%
  Tempfile successfully deleted.
05 -===- H:\[Music (lossless)]\The Strand - [2004] - Diatom\05 - Onslaught.flac
  Extracted successfully
  Conclusion: this track is CDDA with probability 100%
  Tempfile successfully deleted.
06 -===- H:\[Music (lossless)]\The Strand - [2004] - Diatom\06 - Haunted.flac
  Extracted successfully
  Conclusion: this track is CDDA with probability 99%
  Tempfile successfully deleted.
07 -===- H:\[Music (lossless)]\The Strand - [2004] - Diatom\07 - Run or Escape.flac
  Extracted successfully
  Conclusion: this track is CDDA with probability 100%
  Tempfile successfully deleted.
08 -===- H:\[Music (lossless)]\The Strand - [2004] - Diatom\08 - Sex and Liquor.flac
  Extracted successfully
  Conclusion: this track is CDDA with probability 100%
  Tempfile successfully deleted.
09 -===- H:\[Music (lossless)]\The Strand - [2004] - Diatom\09 - Confined.flac
  Extracted successfully
  Conclusion: this track is CDDA with probability 100%
  Tempfile successfully deleted.
10 -===- H:\[Music (lossless)]\The Strand - [2004] - Diatom\10 - Honest Moment.flac
  Extracted successfully
  Conclusion: this track is CDDA with probability 100%
  Tempfile successfully deleted.
11 -===- H:\[Music (lossless)]\The Strand - [2004] - Diatom\11 - My Inspection.flac
  Extracted successfully
  Conclusion: this track is CDDA with probability 100%
  Tempfile successfully deleted.
Finished at: ñóááîòà, 11. 12. 2010. - 12:26.57 (operation time: 0:07.22)



Правила, инструкции, FAQ!!!
Торрент  Добавлен [26 июн 2020, 20:19] Скачать торрент Магнет ссылка
Скачать торрент
[ Размер 15.83 КБ / Просмотров 10 ]

Статус
Проверен 
 
Размер  377.92 МБ
Приватный: Нет (DHT включён)
.torrent скачан  0
 


     Отправить личное сообщение
   
Страница 1 из 1
Показать сообщения за:  Поле сортировки  
Начать новую тему Ответить на тему


Сейчас этот форум просматривают: нет зарегистрированных пользователей и гости: 0


Вы не можете начинать темы
Вы не можете отвечать на сообщения
Вы не можете редактировать свои сообщения
Вы не можете удалять свои сообщения
Вы не можете добавлять вложения

Перейти:  
cron