Начать новую тему Ответить на тему
Статистика раздачи
Размер: 402.51 МБ | Добавлен: 26 июн 2020, 17:48 | Скачали: 0
Сидеров: 0  [0 байт/сек]    Личеров: 0  [0 байт/сек]
Пред. тема | След. тема 

Автор
Сообщение

СообщениеДобавлено: 26 июн 2020, 17:48 

Ответить с цитатой 

Terminal State - Unline Codes
Жанр: electro industrial
Год выпуска диска: 2000
Производитель диска: (Broken Seal, Germany)
Аудио кодек: FLAC
Тип рипа: image+.cue
Битрейт аудио: lossless
Продолжительность: 55:50.72
Трэклист:
01. Lucifer [4:57]
02. X-Riders [6:41]
03. Alien World [4:38]
04. Under Control [6:49]
05. Reset Your Mind (Suborbital mix) [4:22]
06. Land [5:36]
07. Swift For The Dark [6:41]
08. Empty Life [4:51]
09. Mission [5:08]
10. Toxicity [6:08]
Источник: Физический носитель
Код:
Exact Audio Copy V0.99 prebeta 4 from 23. January 2008
Отчёт EAC об извлечении, выполненном 15. ноября 2009, 17:36
Terminal State / Unline Codes
Дисковод: Optiarc DVD RW AD-7173A   Adapter: 0  ID: 0
Режим чтения                 : Достоверность
Использование точного потока : Да
Отключение кэша аудио        : Да
Использование указателей C2  : Нет
Коррекция смещения при чтении                     : 48
Способность читать области Lead-in и Lead-out     : Нет
Заполнение пропущенных сэмплов тишиной            : Да
Удаление блоков с тишиной в начале и конце        : Нет
При вычислениях CRC использовались нулевые сэмплы : Да
Интерфейс                                         : Установленный внешний ASPI-интерфейс
Выходной формат          : Пользовательский кодировщик
Выбранный битрейт        : 1024 kBit/s
Качество                 : Высокий
Добавление ID3-тэга      : Нет
Утилита сжатия           : C:\Program Files\Exact Audio Copy\Flac\flac.exe
Дополнительные параметры : -6 -V -T "ARTIST=%a" -T "TITLE=%t" -T "ALBUM=%g" -T "DATE=%y" -T "TRACKNUMBER=%n" -T "GENRE=%m" -T "COMMENT=%e" %s -o %d
TOC извлечённого CD
     Трек |   Старт  | Длительность | Начальный сектор | Конечный сектор
    ---------------------------------------------------------------------
       1  |  0:00.00 |    4:56.53   |           0      |      22252
       2  |  4:56.53 |    6:40.57   |       22253      |      52309
       3  | 11:37.35 |    4:37.73   |       52310      |      73157
       4  | 16:15.33 |    6:49.30   |       73158      |     103862
       5  | 23:04.63 |    4:22.09   |      103863      |     123521
       6  | 27:26.72 |    5:36.31   |      123522      |     148752
       7  | 33:03.28 |    6:40.50   |      148753      |     178802
       8  | 39:44.03 |    4:50.49   |      178803      |     200601
       9  | 44:34.52 |    5:08.33   |      200602      |     223734
      10  | 49:43.10 |    6:07.62   |      223735      |     251321
Характеристики диапазона извлечения и сообщения об ошибках
Выбранный диапазон
     Имя файла H:\СКАЧКА\FLAC\1 TORRENT\Terminal State - Unline Codes.wav
     Пиковый уровень 98.8 %
     Качество диапазона 99.9 %
     CRC теста A846F731
     CRC копии A846F731
     Копирование... OK
Ошибок не произошло
AccurateRip: сводка
Трек  1  точное извлечение (доверие 2)  [B187DF50]
Трек  2  точное извлечение (доверие 2)  [2A77CC0D]
Трек  3  точное извлечение (доверие 2)  [FEA1175F]
Трек  4  точное извлечение (доверие 2)  [ECAEA6F9]
Трек  5  точное извлечение (доверие 2)  [2FABB38E]
Трек  6  точное извлечение (доверие 2)  [69186423]
Трек  7  точное извлечение (доверие 2)  [B28B83E2]
Трек  8  точное извлечение (доверие 2)  [0610D078]
Трек  9  точное извлечение (доверие 2)  [4B42CCA6]
Трек 10  точное извлечение (доверие 2)  [6935E040]
Все треки извлечены точно
Конец отчёта
Хочешь скачать, но не можешь из-за отсутствия сидов - пиши в личку!
Правила, инструкции, FAQ!!!
Торрент  Добавлен [26 июн 2020, 17:48] Скачать торрент Магнет ссылка
Скачать торрент
[ Размер 16.63 КБ / Просмотров 8 ]

Статус
Проверен 
 
Размер  402.51 МБ
Приватный: Нет (DHT включён)
.torrent скачан  0
 


     Отправить личное сообщение
   
Страница 1 из 1
Показать сообщения за:  Поле сортировки  
Начать новую тему Ответить на тему


Сейчас этот форум просматривают: нет зарегистрированных пользователей и гости: 0


Вы не можете начинать темы
Вы не можете отвечать на сообщения
Вы не можете редактировать свои сообщения
Вы не можете удалять свои сообщения
Вы не можете добавлять вложения

Перейти:  
cron