Начать новую тему Ответить на тему
Статистика раздачи
Размер: 495.67 МБ | Добавлен: 26 июн 2020, 17:45 | Скачали: 0
Сидеров: 0  [0 байт/сек]    Личеров: 0  [0 байт/сек]
Пред. тема | След. тема 

Автор
Сообщение

СообщениеДобавлено: 26 июн 2020, 17:45 

Ответить с цитатой 

Implant - Self-Inflicted
Жанр: Electro/Industrial/Techno/EBM
Год выпуска диска: 2005
Страна: Бельгия
Лейбл: Alfa-matrix
Аудио кодек: FLAC
Тип рипа: tracks+.cue
Битрейт аудио: lossless
Продолжительность: 1:02:54
Трэклист:
01. Denoizer <5:05>
02. My Gun <5:00>
03. Tune Up Your Chips And Circuits <6:00>
04. 4 is Dying <5:02>
05. You Can Watch <5:11>
06. In Your Dreams <4:50>
07. Surface Tension <5:23>
08. The New Gospel <4:58>
09. Dirt <5:59>
10. Drugs vs. Violence <5:11>
11. Identity Crisis <5:16>
12. Fatwa <4:59>
Доп. информация:
Код:
Exact Audio Copy V0.99 prebeta 4 from 23. January 2008
EAC extraction logfile from 4. January 2009, 11:27
Implant / self-inflicted
Used drive  : Optiarc DVD RW AD-7203A   Adapter: 0  ID: 0
Read mode               : Secure
Utilize accurate stream : Yes
Defeat audio cache      : Yes
Make use of C2 pointers : No
Read offset correction                      : 48
Overread into Lead-In and Lead-Out          : No
Fill up missing offset samples with silence : Yes
Delete leading and trailing silent blocks   : No
Null samples used in CRC calculations       : Yes
Used interface                              : Native Win32 interface for Win NT & 2000
Gap handling                                : Appended to previous track
Used output format              : User Defined Encoder
Selected bitrate                : 128 kBit/s
Quality                         : High
Add ID3 tag                     : No
Command line compressor         : C:\Program Files\foobar2000\components\flac-1.2.1-win\bin\flac.exe
Additional command line options : -V -8 -T "artist=%a" -T "title=%t" -T "album=%g" -T "date=%y" -T "tracknumber=%n" -T "genre=%m" %s
TOC of the extracted CD
     Track |   Start  |  Length  | Start sector | End sector
    ---------------------------------------------------------
        1  |  0:00.00 |  5:05.35 |         0    |    22909
        2  |  5:05.35 |  4:59.45 |     22910    |    45379
        3  | 10:05.05 |  6:00.26 |     45380    |    72405
        4  | 16:05.31 |  5:02.00 |     72406    |    95055
        5  | 21:07.31 |  5:10.61 |     95056    |   118366
        6  | 26:18.17 |  4:50.27 |    118367    |   140143
        7  | 31:08.44 |  5:23.00 |    140144    |   164368
        8  | 36:31.44 |  4:57.43 |    164369    |   186686
        9  | 41:29.12 |  5:58.65 |    186687    |   213601
       10  | 47:28.02 |  5:11.28 |    213602    |   236954
       11  | 52:39.30 |  5:15.41 |    236955    |   260620
       12  | 57:54.71 |  4:59.15 |    260621    |   283060
Track  1
     Filename C:\Documents and Settings\hiekkar\desktop\rips\self-inflicted\01 - Denoizer.wav
     Pre-gap length  0:00:02.00
     Peak level 100.0 %
     Track quality 100.0 %
     Test CRC 21C7AB64
     Copy CRC 21C7AB64
     Accurately ripped (confidence 5)  [2C2BEA27]
     Copy OK
Track  2
     Filename C:\Documents and Settings\hiekkar\desktop\rips\self-inflicted\02 - My Gun.wav
     Pre-gap length  0:00:02.00
     Peak level 100.0 %
     Track quality 100.0 %
     Test CRC 17084504
     Copy CRC 17084504
     Accurately ripped (confidence 5)  [1B5E70DF]
     Copy OK
Track  3
     Filename C:\Documents and Settings\hiekkar\desktop\rips\self-inflicted\03 - Tune Up Your Chips And Circuits.wav
     Pre-gap length  0:00:02.00
     Peak level 100.0 %
     Track quality 100.0 %
     Test CRC 46689538
     Copy CRC 46689538
     Accurately ripped (confidence 5)  [F456BE6C]
     Copy OK
Track  4
     Filename C:\Documents and Settings\hiekkar\desktop\rips\self-inflicted\04 - 4 is Dying.wav
     Pre-gap length  0:00:02.00
     Peak level 100.0 %
     Track quality 100.0 %
     Test CRC CED442A5
     Copy CRC CED442A5
     Accurately ripped (confidence 5)  [2871B01F]
     Copy OK
Track  5
     Filename C:\Documents and Settings\hiekkar\desktop\rips\self-inflicted\05 - You Can Watch.wav
     Pre-gap length  0:00:02.00
     Peak level 100.0 %
     Track quality 99.9 %
     Test CRC 3F85DFBB
     Copy CRC 3F85DFBB
     Accurately ripped (confidence 5)  [285D23AF]
     Copy OK
Track  6
     Filename C:\Documents and Settings\hiekkar\desktop\rips\self-inflicted\06 - In Your Dreams.wav
     Pre-gap length  0:00:02.00
     Peak level 100.0 %
     Track quality 100.0 %
     Test CRC 203FF92F
     Copy CRC 203FF92F
     Accurately ripped (confidence 5)  [7B0A34D7]
     Copy OK
Track  7
     Filename C:\Documents and Settings\hiekkar\desktop\rips\self-inflicted\07 - Surface Tension.wav
     Pre-gap length  0:00:02.00
     Peak level 100.0 %
     Track quality 100.0 %
     Test CRC 0B25A116
     Copy CRC 0B25A116
     Accurately ripped (confidence 5)  [BF470E8E]
     Copy OK
Track  8
     Filename C:\Documents and Settings\hiekkar\desktop\rips\self-inflicted\08 - The New Gospel.wav
     Pre-gap length  0:00:02.00
     Peak level 100.0 %
     Track quality 100.0 %
     Test CRC 76E6F1DE
     Copy CRC 76E6F1DE
     Accurately ripped (confidence 5)  [A08FEEC3]
     Copy OK
Track  9
     Filename C:\Documents and Settings\hiekkar\desktop\rips\self-inflicted\09 - Dirt.wav
     Pre-gap length  0:00:02.00
     Peak level 100.0 %
     Track quality 100.0 %
     Test CRC 68E1CF97
     Copy CRC 68E1CF97
     Accurately ripped (confidence 5)  [AE260265]
     Copy OK
Track 10
     Filename C:\Documents and Settings\hiekkar\desktop\rips\self-inflicted\10 - Drugs vs. Violence.wav
     Pre-gap length  0:00:02.00
     Peak level 100.0 %
     Track quality 100.0 %
     Test CRC 3CA20AC9
     Copy CRC 3CA20AC9
     Accurately ripped (confidence 5)  [03A56321]
     Copy OK
Track 11
     Filename C:\Documents and Settings\hiekkar\desktop\rips\self-inflicted\11 - Identity Crisis.wav
     Pre-gap length  0:00:02.00
     Peak level 100.0 %
     Track quality 100.0 %
     Test CRC A1612AF0
     Copy CRC A1612AF0
     Accurately ripped (confidence 5)  [72047491]
     Copy OK
Track 12
     Filename C:\Documents and Settings\hiekkar\desktop\rips\self-inflicted\12 - Fatwa.wav
     Pre-gap length  0:00:02.00
     Peak level 100.0 %
     Track quality 99.9 %
     Test CRC 86193D44
     Copy CRC 86193D44
     Accurately ripped (confidence 4)  [2E9E2812]
     Copy OK
All tracks accurately ripped
No errors occurred
End of status report
http://www.discogs.com/release/455053
http://www.implant-music.be/
http://www.myspace.com/implant
http://www.myspace.com/theimplantplant
Правила, инструкции, FAQ!!!
Торрент  Добавлен [26 июн 2020, 17:45] Скачать торрент Магнет ссылка
Скачать торрент
[ Размер 20.9 КБ / Просмотров 6 ]

Статус
Проверен 
 
Размер  495.67 МБ
Приватный: Нет (DHT включён)
.torrent скачан  0
 


     Отправить личное сообщение
   
Страница 1 из 1
Показать сообщения за:  Поле сортировки  
Начать новую тему Ответить на тему


Сейчас этот форум просматривают: нет зарегистрированных пользователей и гости: 0


Вы не можете начинать темы
Вы не можете отвечать на сообщения
Вы не можете редактировать свои сообщения
Вы не можете удалять свои сообщения
Вы не можете добавлять вложения

Перейти:  
cron