Начать новую тему Ответить на тему
Статистика раздачи
Размер: 490.23 МБ | Добавлен: 26 июн 2020, 17:16 | Скачали: 0
Сидеров: 0  [0 байт/сек]    Личеров: 2  [0 байт/сек]
Пред. тема | След. тема 

Автор
Сообщение

СообщениеДобавлено: 26 июн 2020, 17:16 

Ответить с цитатой 

Implant - Audio Blender
Жанр: Electro/Industrial/Techno/EBM
Год выпуска диска: 2006
Страна: Бельгия
Лейбл: Alfa-matrix
Аудио кодек: FLAC
Тип рипа: tracks+.cue
Битрейт аудио: lossless
Продолжительность: 1:03:12
Трэклист:
01. Was It Always This Way <4:42>
02. Don't Feed The Robots <5:18>
03. The Creature <4:50>
04. The Stimulator <4:56>
05. Fading Away <5:35>
06. You Push Me <4:57>
07. Murderous Thoughts <4:48>
08. Your World <4:39>
09. Chandson d'Amour <4:41>
10. Spanish Fury <4:50>
11. Fuck Things Up <4:23>
12. Focus <3:50>
13. Communication Breakdown <5:43>
Доп. информация:
Код:
Exact Audio Copy V0.99 prebeta 4 from 23. January 2008
EAC extraction logfile from 4. January 2009, 13:21
Implant / Audio Blender
Used drive  : Optiarc DVD RW AD-7203A   Adapter: 0  ID: 0
Read mode               : Secure
Utilize accurate stream : Yes
Defeat audio cache      : Yes
Make use of C2 pointers : No
Read offset correction                      : 48
Overread into Lead-In and Lead-Out          : No
Fill up missing offset samples with silence : Yes
Delete leading and trailing silent blocks   : No
Null samples used in CRC calculations       : Yes
Used interface                              : Native Win32 interface for Win NT & 2000
Gap handling                                : Appended to previous track
Used output format              : User Defined Encoder
Selected bitrate                : 128 kBit/s
Quality                         : High
Add ID3 tag                     : No
Command line compressor         : C:\Program Files\foobar2000\components\flac-1.2.1-win\bin\flac.exe
Additional command line options : -V -8 -T "artist=%a" -T "title=%t" -T "album=%g" -T "date=%y" -T "tracknumber=%n" -T "genre=%m" %s
TOC of the extracted CD
     Track |   Start  |  Length  | Start sector | End sector
    ---------------------------------------------------------
        1  |  0:00.00 |  4:41.53 |         0    |    21127
        2  |  4:41.53 |  5:18.26 |     21128    |    45003
        3  | 10:00.04 |  4:49.43 |     45004    |    66721
        4  | 14:49.47 |  4:55.58 |     66722    |    88904
        5  | 19:45.30 |  5:35.13 |     88905    |   114042
        6  | 25:20.43 |  4:56.49 |    114043    |   136291
        7  | 30:17.17 |  4:48.19 |    136292    |   157910
        8  | 35:05.36 |  4:38.55 |    157911    |   178815
        9  | 39:44.16 |  4:40.44 |    178816    |   199859
       10  | 44:24.60 |  4:50.17 |    199860    |   221626
       11  | 49:15.02 |  4:22.68 |    221627    |   241344
       12  | 53:37.70 |  3:50.29 |    241345    |   258623
       13  | 57:28.24 |  5:43.29 |    258624    |   284377
Track  1
     Filename C:\Documents and Settings\hiekkar\desktop\rips\audio blender\01 - Was It Always This Way.wav
     Pre-gap length  0:00:02.00
     Peak level 100.0 %
     Track quality 100.0 %
     Test CRC 30A73737
     Copy CRC 30A73737
     Accurately ripped (confidence 8)  [B1FB8B12]
     Copy OK
Track  2
     Filename C:\Documents and Settings\hiekkar\desktop\rips\audio blender\02 - Don't Feed The Robots.wav
     Pre-gap length  0:00:02.00
     Peak level 100.0 %
     Track quality 100.0 %
     Test CRC 36A68F12
     Copy CRC 36A68F12
     Accurately ripped (confidence 8)  [6A316A4B]
     Copy OK
Track  3
     Filename C:\Documents and Settings\hiekkar\desktop\rips\audio blender\03 - The Creature.wav
     Pre-gap length  0:00:02.00
     Peak level 100.0 %
     Track quality 99.9 %
     Test CRC AA854B25
     Copy CRC AA854B25
     Accurately ripped (confidence 8)  [C4F718CF]
     Copy OK
Track  4
     Filename C:\Documents and Settings\hiekkar\desktop\rips\audio blender\04 - The Stimulator.wav
     Pre-gap length  0:00:02.00
     Peak level 100.0 %
     Track quality 100.0 %
     Test CRC B36D3C79
     Copy CRC B36D3C79
     Accurately ripped (confidence 8)  [D79EFCFE]
     Copy OK
Track  5
     Filename C:\Documents and Settings\hiekkar\desktop\rips\audio blender\05 - Fading Away.wav
     Pre-gap length  0:00:02.00
     Peak level 100.0 %
     Track quality 100.0 %
     Test CRC 07C9EB6D
     Copy CRC 07C9EB6D
     Accurately ripped (confidence 8)  [BB40F1A5]
     Copy OK
Track  6
     Filename C:\Documents and Settings\hiekkar\desktop\rips\audio blender\06 - You Push Me.wav
     Pre-gap length  0:00:02.00
     Peak level 100.0 %
     Track quality 100.0 %
     Test CRC FCC0C299
     Copy CRC FCC0C299
     Accurately ripped (confidence 8)  [ACADE7F9]
     Copy OK
Track  7
     Filename C:\Documents and Settings\hiekkar\desktop\rips\audio blender\07 - Murderous Thoughts.wav
     Pre-gap length  0:00:02.00
     Peak level 100.0 %
     Track quality 100.0 %
     Test CRC 4D5D729D
     Copy CRC 4D5D729D
     Accurately ripped (confidence 8)  [C8766557]
     Copy OK
Track  8
     Filename C:\Documents and Settings\hiekkar\desktop\rips\audio blender\08 - Your World.wav
     Pre-gap length  0:00:02.00
     Peak level 100.0 %
     Track quality 100.0 %
     Test CRC 6520EBF5
     Copy CRC 6520EBF5
     Accurately ripped (confidence 8)  [E342D150]
     Copy OK
Track  9
     Filename C:\Documents and Settings\hiekkar\desktop\rips\audio blender\09 - Chandson d'Amour.wav
     Pre-gap length  0:00:02.00
     Peak level 100.0 %
     Track quality 99.9 %
     Test CRC 1731FB60
     Copy CRC 1731FB60
     Accurately ripped (confidence 8)  [A3025CBA]
     Copy OK
Track 10
     Filename C:\Documents and Settings\hiekkar\desktop\rips\audio blender\10 - Spanish Fury.wav
     Pre-gap length  0:00:02.00
     Peak level 100.0 %
     Track quality 99.9 %
     Test CRC 63E76302
     Copy CRC 63E76302
     Accurately ripped (confidence 8)  [7302CE89]
     Copy OK
Track 11
     Filename C:\Documents and Settings\hiekkar\desktop\rips\audio blender\11 - Fuck Things Up.wav
     Pre-gap length  0:00:02.00
     Peak level 100.0 %
     Track quality 100.0 %
     Test CRC CFB5C0C5
     Copy CRC CFB5C0C5
     Accurately ripped (confidence 8)  [C201C255]
     Copy OK
Track 12
     Filename C:\Documents and Settings\hiekkar\desktop\rips\audio blender\12 - Focus.wav
     Pre-gap length  0:00:02.00
     Peak level 100.0 %
     Track quality 100.0 %
     Test CRC 53DEE34D
     Copy CRC 53DEE34D
     Accurately ripped (confidence 8)  [F9D4B9A1]
     Copy OK
Track 13
     Filename C:\Documents and Settings\hiekkar\desktop\rips\audio blender\13 - Communication Breakdown.wav
     Pre-gap length  0:00:02.00
     Peak level 100.0 %
     Track quality 100.0 %
     Test CRC 81192516
     Copy CRC 81192516
     Accurately ripped (confidence 8)  [3716F705]
     Copy OK
All tracks accurately ripped
No errors occurred
End of status report
http://www.discogs.com/release/832116
Правила, инструкции, FAQ!!!
Торрент  Добавлен [26 июн 2020, 17:16] Скачать торрент Магнет ссылка
Скачать торрент
[ Размер 20.76 КБ / Просмотров 10 ]

Статус
Проверен 
 
Размер  490.23 МБ
Приватный: Нет (DHT включён)
.torrent скачан  0
 


     Отправить личное сообщение
   
Страница 1 из 1
Показать сообщения за:  Поле сортировки  
Начать новую тему Ответить на тему


Сейчас этот форум просматривают: нет зарегистрированных пользователей и гости: 0


Вы не можете начинать темы
Вы не можете отвечать на сообщения
Вы не можете редактировать свои сообщения
Вы не можете удалять свои сообщения
Вы не можете добавлять вложения

Перейти:  
cron