Начать новую тему Ответить на тему
Статистика раздачи
Размер: 1.88 ГБ | Добавлен: 26 июн 2020, 20:30 | Скачали: 0
Сидеров: 0  [0 байт/сек]    Личеров: 0  [0 байт/сек]
Пред. тема | След. тема 

Автор
Сообщение

СообщениеДобавлено: 26 июн 2020, 20:30 

Ответить с цитатой 

In Strict Confidence - Love Kills! (3CD, 2CD Albums)



Жанр: Electro - Industrial, Synth-pop
Страна-производитель диска: Germany
Год издания: 2000
Издатель (лейбл): Bloodline
Страна: Germany
Аудиокодек: FLAC (*.flac)
Тип рипа: image+.cue
Битрейт аудио: lossless
Продолжительность: 3~02:31:07
Жанр: Electro - Industrial, Synth-pop
Страна-производитель диска: Germany
Год выпуска диска: 2000
Дата выхода оригинального издания: 2000
Тип издания: CD, Album
Издатель (лейбл): Bloodline
Номер по каталогу: Line CD 009
Продолжительность: 01:07:16
Источник (релизер): Собственный рип
Наличие сканов в содержимом раздачи: да, PNG 600dpi

Треклист:
01. Zauberschloss [07:50]
02. Heaven Is The Place To Be [05:30]
03. Stern [05:53]
04. The Truth Inside Of Me [05:04]
05. Spread Your Wings Part I [05:22]
06. Kiss Your Shadow [03:59]
07. Silent Memorial [04:05]
08. Wenn Ich Die Augen Schliesse [06:30]
09. Weltuntergang [04:41]
10. The Setting Of The Sun [03:37]
11. Spread Your Wings Part II [03:33]
12. Six Six Six Seconds Silence In Heaven [11:06]
Код:
 Exact Audio Copy V1.0 beta 3 from 29. August 2011
Отчёт EAC об извлечении, выполненном 20. марта 2014, 23:25
In Strict Confidence / Love Kills! (Line CD 009)
Дисковод: PIONEER BD-RW   BDR-206   Adapter: 0  ID: 2
Режим чтения                 : Достоверность
Использование точного потока : Да
Отключение кэша аудио        : Да
Использование указателей C2  : Нет
Коррекция смещения при чтении                     : 667
Способность читать области Lead-in и Lead-out     : Нет
Заполнение пропущенных сэмплов тишиной            : Да
Удаление блоков с тишиной в начале и конце        : Нет
При вычислениях CRC использовались нулевые сэмплы : Да
Интерфейс                                         : Встроенный Win32-интерфейс для Win NT/2000
Выходной формат          : Пользовательский кодировщик
Выбранный битрейт        : 1024 kBit/s
Качество                 : Высокий
Добавление ID3-тега      : Нет
Утилита сжатия           : C:\Program Files (x86)\Exact Audio Copy\FLAC\FLAC.EXE
Дополнительные параметры : -T "COMMENT=Ripped by SergeyJD"-8 -V -T "ARTIST=%artist%" -T "TITLE=%title%" -T "ALBUM=%albumtitle%" -T "DATE=%year%" -T "TRACKNUMBER=%tracknr%" -T "GENRE=%genre%" -T "COMMENT=%comment%" -T "BAND=%albuminterpret%" -T "ALBUMARTIST=%albuminterpret%" -T "COMPOSER=%composer%" %haslyrics%--tag-from-file=LYRICS="%lyricsfile%"%haslyrics% -T "DISCNUMBER=%cdnumber%" -T "TOTALDISCS=%totalcds%" -T "TOTALTRACKS=%numtracks%" %hascover%--picture="%coverfile%"%hascover% %source% -o %dest%
TOC извлечённого CD
     Трек |   Старт  | Длительность | Начальный сектор | Конечный сектор
    ---------------------------------------------------------------------
       1  |  0:00.00 |    7:50.39   |           0      |      35288
       2  |  7:50.39 |    5:30.44   |       35289      |      60082
       3  | 13:21.08 |    5:54.00   |       60083      |      86632
       4  | 19:15.08 |    5:04.49   |       86633      |     109481
       5  | 24:19.57 |    5:22.18   |      109482      |     133649
       6  | 29:42.00 |    3:59.30   |      133650      |     151604
       7  | 33:41.30 |    4:05.20   |      151605      |     169999
       8  | 37:46.50 |    6:30.04   |      170000      |     199253
       9  | 44:16.54 |    4:41.41   |      199254      |     220369
      10  | 48:58.20 |    3:37.74   |      220370      |     236718
      11  | 52:36.19 |    3:33.52   |      236719      |     252745
      12  | 56:09.71 |   11:06.16   |      252746      |     302711
Характеристики диапазона извлечения и сообщения об ошибках
Выбранный диапазон
     Имя файла D:\РАЗДАЧИ!!!!\In Strict Confidence - Love Kills! (Line CD 009) - 2000\In Strict Confidence - Love Kills! (Line CD 009).wav
     Пиковый уровень 100.0 %
     Скорость извлечения 7.6 X
     Качество диапазона 99.9 %
     CRC теста 4E300AD5
     CRC копии 4E300AD5
     Копирование... OK
Ошибок не произошло
AccurateRip: сводка
Трек  1  : извлечено точно (доверие 6)  [4D93F1B1]  (AR v2)
Трек  2  : извлечено точно (доверие 6)  [E29B8FF7]  (AR v2)
Трек  3  : извлечено точно (доверие 6)  [C69B56D2]  (AR v2)
Трек  4  : извлечено точно (доверие 6)  [BD33B4D8]  (AR v2)
Трек  5  : извлечено точно (доверие 6)  [979A0A7E]  (AR v2)
Трек  6  : извлечено точно (доверие 6)  [97F9B43C]  (AR v2)
Трек  7  : извлечено точно (доверие 6)  [B34A8016]  (AR v2)
Трек  8  : извлечено точно (доверие 6)  [0DA882AC]  (AR v2)
Трек  9  : извлечено точно (доверие 6)  [C1BEB693]  (AR v2)
Трек 10  : извлечено точно (доверие 6)  [8EAD94AC]  (AR v2)
Трек 11  : извлечено точно (доверие 6)  [643717EE]  (AR v2)
Трек 12  : извлечено точно (доверие 6)  [9D023806]  (AR v2)
Все треки извлечены точно
Конец отчёта
==== Контрольная сумма отчёта 3EB96DE077376D14577583ED4948146F7646C6BA30E8BD97BFBFA6BCACD242BF ====
   
Код:
 REM GENRE "Industrial, Synth-pop"
REM DATE 2000
REM DISCID A40FC40C
REM COMMENT "ExactAudioCopy v1.0b3"
PERFORMER "In Strict Confidence"
TITLE "Love Kills! (Line CD 009)"
FILE "In Strict Confidence - Love Kills! (Line CD 009).flac" WAVE
  TRACK 01 AUDIO
    TITLE "Zauberschloss"
    PERFORMER "In Strict Confidence"
    FLAGS DCP
    INDEX 01 00:00:00
  TRACK 02 AUDIO
    TITLE "Heaven Is The Place To Be"
    PERFORMER "In Strict Confidence"
    FLAGS DCP
    INDEX 00 07:48:69
    INDEX 01 07:50:39
  TRACK 03 AUDIO
    TITLE "Stern"
    PERFORMER "In Strict Confidence"
    FLAGS DCP
    INDEX 00 13:19:38
    INDEX 01 13:21:08
  TRACK 04 AUDIO
    TITLE "The Truth Inside Of Me"
    PERFORMER "In Strict Confidence"
    FLAGS DCP
    INDEX 00 19:13:39
    INDEX 01 19:15:08
  TRACK 05 AUDIO
    TITLE "Spread Your Wings Part I"
    PERFORMER "In Strict Confidence"
    FLAGS DCP
    INDEX 00 24:18:12
    INDEX 01 24:19:57
  TRACK 06 AUDIO
    TITLE "Kiss Your Shadow"
    PERFORMER "In Strict Confidence"
    FLAGS DCP
    INDEX 00 29:40:30
    INDEX 01 29:42:00
  TRACK 07 AUDIO
    TITLE "Silent Memorial"
    PERFORMER "In Strict Confidence"
    FLAGS DCP
    INDEX 00 33:39:60
    INDEX 01 33:41:30
  TRACK 08 AUDIO
    TITLE "Wenn Ich Die Augen Schliesse"
    PERFORMER "In Strict Confidence"
    FLAGS DCP
    INDEX 00 37:45:07
    INDEX 01 37:46:50
  TRACK 09 AUDIO
    TITLE "Weltuntergang"
    PERFORMER "In Strict Confidence"
    FLAGS DCP
    INDEX 01 44:16:54
  TRACK 10 AUDIO
    TITLE "The Setting Of The Sun"
    PERFORMER "In Strict Confidence"
    FLAGS DCP
    INDEX 00 48:56:50
    INDEX 01 48:58:20
  TRACK 11 AUDIO
    TITLE "Spread Your Wings Part II"
    PERFORMER "In Strict Confidence"
    FLAGS DCP
    INDEX 01 52:36:19
  TRACK 12 AUDIO
    TITLE "Six Six Six Seconds Silence In Heaven"
    PERFORMER "In Strict Confidence"
    FLAGS DCP
    INDEX 00 56:08:26
    INDEX 01 56:09:71
   
Код:
-----------------------
DON'T MODIFY THIS FILE
-----------------------
PERFORMER: auCDtect Task Manager, ver. 1.5.1RC6 build 1.5.1.7
Copyright (c) 2008-2010 y-soft. All rights reserved
[url=http://y-soft.org]http://y-soft.org[/url]
ANALYZER: auCDtect: CD records authenticity detector, version 0.8.2
Copyright (c) 2004 Oleg Berngardt. All rights reserved.
Copyright (c) 2004 Alexander Djourik. All rights reserved.
FILE: In Strict Confidence - Love Kills! (Line CD 009).flac
  Size: 418442377 Hash: A1A58ECAE740495831B519349783FDAD Accuracy: -m0
  Conclusion: CDDA 100%
  Signature: 6ABBA46BD42FACF9E02D01449DF5BDD727A283BC
     
#777

Жанр: Electro - Industrial, Synth-pop
Страна-производитель диска: Germany
Год выпуска диска: 2000
Дата выхода оригинального издания: 200
Тип издания: ‎Box, Ltd + CD, Album + CD, Mini, Ltd
Издатель (лейбл): Bloodline
Номер по каталогу: Line CD 009L
Продолжительность: 2~01:23:51
Источник (релизер): Собственный рип
Наличие сканов в содержимом раздачи: да, PNG 600dpi
#777
Треклист
01. Zauberschloss [07:50]
02. Heaven Is The Place To Be [05:30]
03. Stern [05:53]
04. The Truth Inside Of Me [05:04]
05. Spread Your Wings Part I [05:22]
06. Kiss Your Shadow [03:59]
07. Silent Memorial [04:05]
08. Wenn Ich Die Augen Schliesse [06:30]
09. Weltuntergang [04:41]
10. The Setting Of The Sun [03:37]
11. Spread Your Wings Part II [03:33]
12. Six Six Six Seconds Silence In Heaven [11:06]
Код:
Exact Audio Copy V1.0 beta 3 from 29. August 2011
Отчёт EAC об извлечении, выполненном 21. марта 2014, 19:56
In Strict Confidence / Love Kills! (Line CD 009L) CD1
Дисковод: PIONEER BD-RW   BDR-206   Adapter: 0  ID: 2
Режим чтения                 : Достоверность
Использование точного потока : Да
Отключение кэша аудио        : Да
Использование указателей C2  : Нет
Коррекция смещения при чтении                     : 667
Способность читать области Lead-in и Lead-out     : Нет
Заполнение пропущенных сэмплов тишиной            : Да
Удаление блоков с тишиной в начале и конце        : Нет
При вычислениях CRC использовались нулевые сэмплы : Да
Интерфейс                                         : Встроенный Win32-интерфейс для Win NT/2000
Выходной формат          : Пользовательский кодировщик
Выбранный битрейт        : 1024 kBit/s
Качество                 : Высокий
Добавление ID3-тега      : Нет
Утилита сжатия           : C:\Program Files (x86)\Exact Audio Copy\FLAC\FLAC.EXE
Дополнительные параметры : -T "COMMENT=Ripped by SergeyJD"-8 -V -T "ARTIST=%artist%" -T "TITLE=%title%" -T "ALBUM=%albumtitle%" -T "DATE=%year%" -T "TRACKNUMBER=%tracknr%" -T "GENRE=%genre%" -T "COMMENT=%comment%" -T "BAND=%albuminterpret%" -T "ALBUMARTIST=%albuminterpret%" -T "COMPOSER=%composer%" %haslyrics%--tag-from-file=LYRICS="%lyricsfile%"%haslyrics% -T "DISCNUMBER=%cdnumber%" -T "TOTALDISCS=%totalcds%" -T "TOTALTRACKS=%numtracks%" %hascover%--picture="%coverfile%"%hascover% %source% -o %dest%
TOC извлечённого CD
     Трек |   Старт  | Длительность | Начальный сектор | Конечный сектор
    ---------------------------------------------------------------------
       1  |  0:00.00 |    7:50.39   |           0      |      35288
       2  |  7:50.39 |    5:30.44   |       35289      |      60082
       3  | 13:21.08 |    5:54.00   |       60083      |      86632
       4  | 19:15.08 |    5:04.49   |       86633      |     109481
       5  | 24:19.57 |    5:22.18   |      109482      |     133649
       6  | 29:42.00 |    3:59.30   |      133650      |     151604
       7  | 33:41.30 |    4:05.20   |      151605      |     169999
       8  | 37:46.50 |    6:30.04   |      170000      |     199253
       9  | 44:16.54 |    4:41.41   |      199254      |     220369
      10  | 48:58.20 |    3:37.74   |      220370      |     236718
      11  | 52:36.19 |    3:33.52   |      236719      |     252745
      12  | 56:09.71 |   11:06.16   |      252746      |     302711
Характеристики диапазона извлечения и сообщения об ошибках
Выбранный диапазон
     Имя файла G:\Музыка\In Strict Confidence - Love Kills! (2CD Limited Edition , Line CD 009L) - 2000\Disc 1 - Love Kills!\In Strict Confidence - Love Kills! (Line CD 009L) CD1.wav
     Пиковый уровень 100.0 %
     Скорость извлечения 7.6 X
     Качество диапазона 99.9 %
     CRC теста 4E300AD5
     CRC копии 4E300AD5
     Копирование... OK
Ошибок не произошло
AccurateRip: сводка
Трек  1  : извлечено точно (доверие 6)  [4D93F1B1]  (AR v2)
Трек  2  : извлечено точно (доверие 6)  [E29B8FF7]  (AR v2)
Трек  3  : извлечено точно (доверие 6)  [C69B56D2]  (AR v2)
Трек  4  : извлечено точно (доверие 6)  [BD33B4D8]  (AR v2)
Трек  5  : извлечено точно (доверие 6)  [979A0A7E]  (AR v2)
Трек  6  : извлечено точно (доверие 6)  [97F9B43C]  (AR v2)
Трек  7  : извлечено точно (доверие 6)  [B34A8016]  (AR v2)
Трек  8  : извлечено точно (доверие 6)  [0DA882AC]  (AR v2)
Трек  9  : извлечено точно (доверие 6)  [C1BEB693]  (AR v2)
Трек 10  : извлечено точно (доверие 6)  [8EAD94AC]  (AR v2)
Трек 11  : извлечено точно (доверие 6)  [643717EE]  (AR v2)
Трек 12  : извлечено точно (доверие 6)  [9D023806]  (AR v2)
Все треки извлечены точно
Конец отчёта
==== Контрольная сумма отчёта D9B4BF43EDA7E34F6382A448F3642CAE13AC57C4F6259FF96D2747126EFBFD97 ====
     
Код:
 REM GENRE "Electro, Industrial, Synth-pop"
REM DATE 2000
REM DISCID A40FC40C
REM COMMENT "ExactAudioCopy v1.0b3"
PERFORMER "In Strict Confidence"
TITLE "Love Kills! (Line CD 009L) CD1"
FILE "In Strict Confidence - Love Kills! (Line CD 009L) CD1.flac" WAVE
  TRACK 01 AUDIO
    TITLE "Zauberschloss"
    PERFORMER "In Strict Confidence"
    FLAGS DCP
    INDEX 01 00:00:00
  TRACK 02 AUDIO
    TITLE "Heaven Is The Place To Be"
    PERFORMER "In Strict Confidence"
    FLAGS DCP
    INDEX 00 07:48:69
    INDEX 01 07:50:39
  TRACK 03 AUDIO
    TITLE "Stern"
    PERFORMER "In Strict Confidence"
    FLAGS DCP
    INDEX 00 13:19:38
    INDEX 01 13:21:08
  TRACK 04 AUDIO
    TITLE "The Truth Inside Of Me"
    PERFORMER "In Strict Confidence"
    FLAGS DCP
    INDEX 00 19:13:38
    INDEX 01 19:15:08
  TRACK 05 AUDIO
    TITLE "Spread Your Wings Part I"
    PERFORMER "In Strict Confidence"
    FLAGS DCP
    INDEX 00 24:18:13
    INDEX 01 24:19:57
  TRACK 06 AUDIO
    TITLE "Kiss Your Shadow"
    PERFORMER "In Strict Confidence"
    FLAGS DCP
    INDEX 00 29:40:31
    INDEX 01 29:42:00
  TRACK 07 AUDIO
    TITLE "Silent Memorial"
    PERFORMER "In Strict Confidence"
    FLAGS DCP
    INDEX 00 33:39:60
    INDEX 01 33:41:30
  TRACK 08 AUDIO
    TITLE "Wenn Ich Die Augen Schliesse"
    PERFORMER "In Strict Confidence"
    FLAGS DCP
    INDEX 00 37:45:07
    INDEX 01 37:46:50
  TRACK 09 AUDIO
    TITLE "Weltuntergang"
    PERFORMER "In Strict Confidence"
    FLAGS DCP
    INDEX 01 44:16:54
  TRACK 10 AUDIO
    TITLE "The Setting Of The Sun"
    PERFORMER "In Strict Confidence"
    FLAGS DCP
    INDEX 00 48:56:50
    INDEX 01 48:58:20
  TRACK 11 AUDIO
    TITLE "Spread Your Wings Part II"
    PERFORMER "In Strict Confidence"
    FLAGS DCP
    INDEX 01 52:36:19
  TRACK 12 AUDIO
    TITLE "Six Six Six Seconds Silence In Heaven"
    PERFORMER "In Strict Confidence"
    FLAGS DCP
    INDEX 00 56:08:28
    INDEX 01 56:09:71
     
Код:
-----------------------
DON'T MODIFY THIS FILE
-----------------------
PERFORMER: auCDtect Task Manager, ver. 1.5.1RC6 build 1.5.1.7
Copyright (c) 2008-2010 y-soft. All rights reserved
[url=http://y-soft.org]http://y-soft.org[/url]
ANALYZER: auCDtect: CD records authenticity detector, version 0.8.2
Copyright (c) 2004 Oleg Berngardt. All rights reserved.
Copyright (c) 2004 Alexander Djourik. All rights reserved.
FILE: In Strict Confidence - Love Kills! (Line CD 009L) CD1.flac
  Size: 418442391 Hash: A1A58ECAE740495831B519349783FDAD Accuracy: -m0
  Conclusion: CDDA 100%
  Signature: A28F891E0B7127621615EB90EEBA867F94763330
     
#777
Треклист:
01. Stern (NASA-Mix) [06:21]
02. Kiss Your Shadow (Q-Mix) [06:16]
03. Weltuntergang (Roswell-Mix) [03:57]
Код:
 Exact Audio Copy V1.0 beta 3 from 29. August 2011
Отчёт EAC об извлечении, выполненном 22. марта 2014, 22:35
In Strict Confidence / The Controlled Fusion Remixes
Дисковод: PIONEER BD-RW   BDR-206   Adapter: 0  ID: 2
Режим чтения                 : Достоверность
Использование точного потока : Да
Отключение кэша аудио        : Да
Использование указателей C2  : Нет
Коррекция смещения при чтении                     : 667
Способность читать области Lead-in и Lead-out     : Нет
Заполнение пропущенных сэмплов тишиной            : Да
Удаление блоков с тишиной в начале и конце        : Нет
При вычислениях CRC использовались нулевые сэмплы : Да
Интерфейс                                         : Встроенный Win32-интерфейс для Win NT/2000
Выходной формат          : Пользовательский кодировщик
Выбранный битрейт        : 1024 kBit/s
Качество                 : Высокий
Добавление ID3-тега      : Нет
Утилита сжатия           : C:\Program Files (x86)\Exact Audio Copy\FLAC\FLAC.EXE
Дополнительные параметры : -T "COMMENT=Ripped by SergeyJD"-8 -V -T "ARTIST=%artist%" -T "TITLE=%title%" -T "ALBUM=%albumtitle%" -T "DATE=%year%" -T "TRACKNUMBER=%tracknr%" -T "GENRE=%genre%" -T "COMMENT=%comment%" -T "BAND=%albuminterpret%" -T "ALBUMARTIST=%albuminterpret%" -T "COMPOSER=%composer%" %haslyrics%--tag-from-file=LYRICS="%lyricsfile%"%haslyrics% -T "DISCNUMBER=%cdnumber%" -T "TOTALDISCS=%totalcds%" -T "TOTALTRACKS=%numtracks%" %hascover%--picture="%coverfile%"%hascover% %source% -o %dest%
TOC извлечённого CD
     Трек |   Старт  | Длительность | Начальный сектор | Конечный сектор
    ---------------------------------------------------------------------
       1  |  0:00.00 |    6:21.09   |           0      |      28583
       2  |  6:21.09 |    6:16.39   |       28584      |      56822
       3  | 12:37.48 |    3:57.35   |       56823      |      74632
Характеристики диапазона извлечения и сообщения об ошибках
Выбранный диапазон
     Имя файла D:\РАЗДАЧИ!!!!\In Strict Confidence-Love Kills!(2Album,3CD)-2000\In Strict Confidence - Love Kills! (2CD Limited Edition , Line CD 009L) - 2000\Disc 2 - The Controlled Fusion Remixes\In Strict Confidence - The Controlled Fusion Remixes.wav
     Пиковый уровень 99.9 %
     Скорость извлечения 6.2 X
     Качество диапазона 100.0 %
     CRC теста 9D6F356C
     CRC копии 9D6F356C
     Копирование... OK
Ошибок не произошло
AccurateRip: сводка
Трек  1  : извлечено точно (доверие 2)  [5B309008]  (AR v2)
Трек  2  : извлечено точно (доверие 2)  [55DA2D75]  (AR v2)
Трек  3  : извлечено точно (доверие 2)  [4FE776CF]  (AR v2)
Все треки извлечены точно
Конец отчёта
==== Контрольная сумма отчёта 8673694C96D2F391101A750DDD0B2E9496674024970EB913913991BAB8020987 ====
     
Код:
REM GENRE "Electro, Industrial, Synth-pop"
REM DATE 2000
REM DISCID 2503E303
REM COMMENT "ExactAudioCopy v1.0b3"
PERFORMER "In Strict Confidence"
TITLE "The Controlled Fusion Remixes"
FILE "In Strict Confidence - The Controlled Fusion Remixes.flac" WAVE
  TRACK 01 AUDIO
    TITLE "Stern (NASA-Mix)"
    PERFORMER "In Strict Confidence"
    INDEX 01 00:00:00
  TRACK 02 AUDIO
    TITLE "Kiss Your Shadow (Q-Mix)"
    PERFORMER "In Strict Confidence"
    INDEX 00 06:19:09
    INDEX 01 06:21:09
  TRACK 03 AUDIO
    TITLE "Weltuntergang (Roswell-Mix)"
    PERFORMER "In Strict Confidence"
    INDEX 00 12:35:48
    INDEX 01 12:37:48
     
Код:
-----------------------
DON'T MODIFY THIS FILE
-----------------------
PERFORMER: auCDtect Task Manager, ver. 1.5.1RC6 build 1.5.1.7
Copyright (c) 2008-2010 y-soft. All rights reserved
[url=http://y-soft.org]http://y-soft.org[/url]
ANALYZER: auCDtect: CD records authenticity detector, version 0.8.2
Copyright (c) 2004 Oleg Berngardt. All rights reserved.
Copyright (c) 2004 Alexander Djourik. All rights reserved.
FILE: In Strict Confidence - The Controlled Fusion Remixes.flac
  Size: 110668867 Hash: 0409086956C59DB65C4EB062A6D75CC6 Accuracy: -m0
  Conclusion: CDDA 100%
  Signature: 77BC7189B639BE27EBABD853AF6477325E5DE241
   
Limited Fan Edition Boxset of 1000 copies that also includes 16 page oversized booklet, condom, metal-pin, postcard set, and sticker set. 2nd CD is a 3 track 3" mini CD.
Правила, инструкции, FAQ!!!
Торрент  Добавлен [26 июн 2020, 20:30] Скачать торрент Магнет ссылка
Скачать торрент
[ Размер 24.84 КБ / Просмотров 9 ]

Статус
Проверен 
 
Размер  1.88 ГБ
Приватный: Нет (DHT включён)
.torrent скачан  0
 


     Отправить личное сообщение
   
Страница 1 из 1
Показать сообщения за:  Поле сортировки  
Начать новую тему Ответить на тему


Сейчас этот форум просматривают: нет зарегистрированных пользователей и гости: 0


Вы не можете начинать темы
Вы не можете отвечать на сообщения
Вы не можете редактировать свои сообщения
Вы не можете удалять свои сообщения
Вы не можете добавлять вложения

Перейти:  
cron