Начать новую тему Ответить на тему
Статистика раздачи
Размер: 437.29 МБ | Добавлен: 26 июн 2020, 20:27 | Скачали: 0
Сидеров: 0  [0 байт/сек]    Личеров: 0  [0 байт/сек]
Пред. тема | След. тема 

Автор
Сообщение

СообщениеДобавлено: 26 июн 2020, 20:27 

Ответить с цитатой 

Future Trail / Breaking New Ground
Жанр: electro industrial / synth pop
Страна-производитель диска: Germany
Год издания диска: 2009
Издатель (лейбл): E-Noxe
Номер по каталогу: NX073
Аудио кодек: FLAC (*.flac)
Тип рипа: image+.cue
Битрейт аудио: lossless
Продолжительность: 56:48.74
Источник (релизер): Физический носитель
Наличие сканов в содержимом раздачи: да
Треклист:
01. Signals [2:52]
02. Breaking New Ground [4:53]
03. Panic [6:00]
04. Players [5:55]
05. Far Beyond [4:55]
06. Pacific [1:47]
07. Never Farewell [5:40]
08. Monohrome Affair [3:21]
09. One Time Focussed [6:00]
10. Landslide [4:26]
11. Patience [5:03]
12. Satellite [5:57]
Код:
Exact Audio Copy V0.99 prebeta 5 from 4. May 2009
Отчёт EAC об извлечении, выполненном 17. ноября 2010, 21:39
Future Trail / Breaking New Ground
Дисковод: Optiarc DVD RW AD-7173A   Adapter: 0  ID: 0
Режим чтения                 : Достоверность
Использование точного потока : Да
Отключение кэша аудио        : Да
Использование указателей C2  : Нет
Коррекция смещения при чтении                     : 48
Способность читать области Lead-in и Lead-out     : Нет
Заполнение пропущенных сэмплов тишиной            : Да
Удаление блоков с тишиной в начале и конце        : Нет
При вычислениях CRC использовались нулевые сэмплы : Да
Интерфейс                                         : Установленный внешний ASPI-интерфейс
Выходной формат          : Пользовательский кодировщик
Выбранный битрейт        : 1024 kBit/s
Качество                 : Высокий
Добавление ID3-тэга      : Нет
Утилита сжатия           : C:\Program Files\Exact Audio Copy\flac.exe
Дополнительные параметры : -6 -V -T "ARTIST=%a" -T "TITLE=%t" -T "ALBUM=%g" -T "DATE=%y" -T "TRACKNUMBER=%n" -T "GENRE=%m" -T "COMMENT=%e" %s -o %d
TOC извлечённого CD
     Трек |   Старт  | Длительность | Начальный сектор | Конечный сектор
    ---------------------------------------------------------------------
       1  |  0:00.00 |    2:51.72   |           0      |      12896
       2  |  2:51.72 |    4:52.39   |       12897      |      34835
       3  |  7:44.36 |    6:00.19   |       34836      |      61854
       4  | 13:44.55 |    5:54.68   |       61855      |      88472
       5  | 19:39.48 |    4:55.00   |       88473      |     110597
       6  | 24:34.48 |    1:46.51   |      110598      |     118598
       7  | 26:21.24 |    5:40.18   |      118599      |     144116
       8  | 32:01.42 |    3:20.53   |      144117      |     159169
       9  | 35:22.20 |    6:00.00   |      159170      |     186169
      10  | 41:22.20 |    4:26.21   |      186170      |     206140
      11  | 45:48.41 |    5:03.24   |      206141      |     228889
      12  | 50:51.65 |    5:57.09   |      228890      |     255673
Характеристики диапазона извлечения и сообщения об ошибках
Выбранный диапазон
     Имя файла H:\СКАЧКА\FLAC\1 TORRENT\Future Trail - Breaking New Ground.wav
     Пиковый уровень 98.8 %
     Качество диапазона 99.9 %
     CRC теста AAC7B6F9
     CRC копии AAC7B6F9
     Копирование... OK
Ошибок не произошло
Конец отчёта
Правила, инструкции, FAQ!!!
Торрент  Добавлен [26 июн 2020, 20:27] Скачать торрент Магнет ссылка
Скачать торрент
[ Размер 18.12 КБ / Просмотров 9 ]

Статус
Проверен 
 
Размер  437.29 МБ
Приватный: Нет (DHT включён)
.torrent скачан  0
 


     Отправить личное сообщение
   
Страница 1 из 1
Показать сообщения за:  Поле сортировки  
Начать новую тему Ответить на тему


Сейчас этот форум просматривают: нет зарегистрированных пользователей и гости: 0


Вы не можете начинать темы
Вы не можете отвечать на сообщения
Вы не можете редактировать свои сообщения
Вы не можете удалять свои сообщения
Вы не можете добавлять вложения

Перейти:  
cron