Начать новую тему Ответить на тему
Статистика раздачи
Размер: 1005.67 МБ | Добавлен: 26 июн 2020, 20:16 | Скачали: 0
Сидеров: 0  [0 байт/сек]    Личеров: 0  [0 байт/сек]
Пред. тема | След. тема 

Автор
Сообщение

СообщениеДобавлено: 26 июн 2020, 20:16 

Ответить с цитатой 

Studio-X / Neo-Futurism
Жанр: electro industrial
Страна-производитель диска: Belgium
Год издания: 2011
Издатель (лейбл): Alfa Matrix
Номер по каталогу: AM-3012-DJ
Аудиокодек: FLAC (*.flac)
Тип рипа: image+.cue
Битрейт аудио: lossless
Продолжительность Disc1: 1:11:53.45;
Продолжительность Disc2: 1:00:50.10
Источник (релизер): Физический носитель
Наличие сканов в содержимом раздачи: да
Треклист:
Disc1
01. You'll Never Get This [5:01]
02. Break Free (Hardstyle Edit) [5:27]
03. Decapitated [5:17]
04. Poison Ivy [5:28]
05. Who Said That? [6:28]
06. Antichrist [4:55]
07. Search And Destroy [5:48]
08. Speed (What Do You Know About It?) [4:59]
09. Kokoda [4:28]
10. The Drill [5:42]
11. Party (feat. Rachel Haywire) [5:11]
12. Poison Ivy (DJ-X Lab-4 remix) [7:34]
13. The Drill (Proteus ''Fire Walk With Me'' remix) [5:34]
Disc2 - Remix Collection
01. Nitzer Ebb - Once You Say (Studio-X Electro remix) [4:27]
02. Implant - Violence (Studio-X Hard Dance remix) [4:56]
03. Ayria - Bad List (Studio-X Electro remix) [3:20]
04. Leæther Strip - Compassion (Studio-X Trance remix) [5:57]
05. Helalyn Flowers - Your Killer Toy (Studio-X Hard Dance remix) [4:43]
06. I:Scintilla - Prey On You (Studio-X Hard Dance remix) [5:48]
07. Unter Null - Godless (Studio-X Hard Dance remix) [5:32]
08. Acylum - Raise Your Fist (Studio-X Hard Dance remix) [4:37]
09. Psy'Aviah - No Excuse (Studio-X Hard Dance remix) [5:38]
10. Essence Of Mind - Wicked Smile (Studio-X Hard Dance remix) [5:19]
11. Neikka RPM - Warped (Studio-X Hard Dance remix) [5:42]
12. Freakangel - It's Not A Love Song (Studio-X Hard Dance remix) [4:51]
Код:
Exact Audio Copy V0.99 prebeta 5 from 4. May 2009
Отчёт EAC об извлечении, выполненном 16. января 2012, 22:15
Studio-X / Neo-Futurism
Дисковод: _NEC    DVD_RW ND-3520A   Adapter: 0  ID: 1
Режим чтения                 : Достоверность
Использование точного потока : Да
Отключение кэша аудио        : Да
Использование указателей C2  : Нет
Коррекция смещения при чтении                     : 48
Способность читать области Lead-in и Lead-out     : Нет
Заполнение пропущенных сэмплов тишиной            : Да
Удаление блоков с тишиной в начале и конце        : Нет
При вычислениях CRC использовались нулевые сэмплы : Да
Интерфейс                                         : Установленный внешний ASPI-интерфейс
Выходной формат          : Пользовательский кодировщик
Выбранный битрейт        : 1024 kBit/s
Качество                 : Высокий
Добавление ID3-тэга      : Нет
Утилита сжатия           : C:\Program Files\Exact Audio Copy\flac.exe
Дополнительные параметры : -6 -V -T "ARTIST=%a" -T "TITLE=%t" -T "ALBUM=%g" -T "DATE=%y" -T "TRACKNUMBER=%n" -T "GENRE=%m" -T "COMMENT=%e" %s -o %d
TOC извлечённого CD
     Трек |   Старт  | Длительность | Начальный сектор | Конечный сектор
    ---------------------------------------------------------------------
       1  |  0:00.00 |    5:00.64   |           0      |      22563
       2  |  5:00.64 |    5:27.16   |       22564      |      47104
       3  | 10:28.05 |    5:16.67   |       47105      |      70871
       4  | 15:44.72 |    5:28.16   |       70872      |      95487
       5  | 21:13.13 |    6:28.00   |       95488      |     124587
       6  | 27:41.13 |    4:55.06   |      124588      |     146718
       7  | 32:36.19 |    5:48.05   |      146719      |     172823
       8  | 38:24.24 |    4:59.26   |      172824      |     195274
       9  | 43:23.50 |    4:27.58   |      195275      |     215357
      10  | 47:51.33 |    5:42.37   |      215358      |     241044
      11  | 53:33.70 |    5:10.62   |      241045      |     264356
      12  | 58:44.57 |    7:34.34   |      264357      |     298440
      13  | 66:19.16 |    5:34.29   |      298441      |     323519
Характеристики диапазона извлечения и сообщения об ошибках
Выбранный диапазон
     Имя файла O:\На трекер\Studio-X - Neo-Futurism.wav
     Пиковый уровень 100.0 %
     Качество диапазона 100.0 %
     CRC теста C60CC48A
     CRC копии C60CC48A
     Копирование... OK
Ошибок не произошло
AccurateRip: сводка
Трек  1  нет в базе данных
Трек  2  нет в базе данных
Трек  3  нет в базе данных
Трек  4  нет в базе данных
Трек  5  нет в базе данных
Трек  6  нет в базе данных
Трек  7  нет в базе данных
Трек  8  нет в базе данных
Трек  9  нет в базе данных
Трек 10  нет в базе данных
Трек 11  нет в базе данных
Трек 12  нет в базе данных
Трек 13  нет в базе данных
Ни одного трека нет в базе AccurateRip
Конец отчёта
Код:
Exact Audio Copy V0.99 prebeta 5 from 4. May 2009
Отчёт EAC об извлечении, выполненном 18. января 2012, 11:25
Studio-X / Neo-Futurism
Дисковод: _NEC    DVD_RW ND-3520A   Adapter: 0  ID: 1
Режим чтения                 : Достоверность
Использование точного потока : Да
Отключение кэша аудио        : Да
Использование указателей C2  : Нет
Коррекция смещения при чтении                     : 48
Способность читать области Lead-in и Lead-out     : Нет
Заполнение пропущенных сэмплов тишиной            : Да
Удаление блоков с тишиной в начале и конце        : Нет
При вычислениях CRC использовались нулевые сэмплы : Да
Интерфейс                                         : Установленный внешний ASPI-интерфейс
Выходной формат          : Пользовательский кодировщик
Выбранный битрейт        : 1024 kBit/s
Качество                 : Высокий
Добавление ID3-тэга      : Нет
Утилита сжатия           : C:\Program Files\Exact Audio Copy\flac.exe
Дополнительные параметры : -6 -V -T "ARTIST=%a" -T "TITLE=%t" -T "ALBUM=%g" -T "DATE=%y" -T "TRACKNUMBER=%n" -T "GENRE=%m" -T "COMMENT=%e" %s -o %d
TOC извлечённого CD
     Трек |   Старт  | Длительность | Начальный сектор | Конечный сектор
    ---------------------------------------------------------------------
       1  |  0:00.00 |    4:27.02   |           0      |      20026
       2  |  4:27.02 |    4:55.54   |       20027      |      42205
       3  |  9:22.56 |    3:20.16   |       42206      |      57221
       4  | 12:42.72 |    5:56.47   |       57222      |      83968
       5  | 18:39.44 |    4:42.62   |       83969      |     105180
       6  | 23:22.31 |    5:48.01   |      105181      |     131281
       7  | 29:10.32 |    5:31.61   |      131282      |     156167
       8  | 34:42.18 |    4:37.03   |      156168      |     176945
       9  | 39:19.21 |    5:38.26   |      176946      |     202321
      10  | 44:57.47 |    5:19.30   |      202322      |     226276
      11  | 50:17.02 |    5:41.57   |      226277      |     251908
      12  | 55:58.59 |    4:51.26   |      251909      |     273759
Характеристики диапазона извлечения и сообщения об ошибках
Выбранный диапазон
     Имя файла O:\На трекер\Studio-X - Neo-Futurism.wav
     Пиковый уровень 99.9 %
     Качество диапазона 99.9 %
     CRC теста 3CA8FFFC
     CRC копии 3CA8FFFC
     Копирование... OK
Ошибок не произошло
AccurateRip: сводка
Трек  1  нет в базе данных
Трек  2  нет в базе данных
Трек  3  нет в базе данных
Трек  4  нет в базе данных
Трек  5  нет в базе данных
Трек  6  нет в базе данных
Трек  7  нет в базе данных
Трек  8  нет в базе данных
Трек  9  нет в базе данных
Трек 10  нет в базе данных
Трек 11  нет в базе данных
Трек 12  нет в базе данных
Ни одного трека нет в базе AccurateRip
Конец отчёта
Правила, инструкции, FAQ!!!
Торрент  Добавлен [26 июн 2020, 20:16] Скачать торрент Магнет ссылка
Скачать торрент
[ Размер 20.9 КБ / Просмотров 12 ]

Статус
Проверен 
 
Размер  1005.67 МБ
Приватный: Нет (DHT включён)
.torrent скачан  0
 


     Отправить личное сообщение
   
Страница 1 из 1
Показать сообщения за:  Поле сортировки  
Начать новую тему Ответить на тему


Сейчас этот форум просматривают: нет зарегистрированных пользователей и гости: 0


Вы не можете начинать темы
Вы не можете отвечать на сообщения
Вы не можете редактировать свои сообщения
Вы не можете удалять свои сообщения
Вы не можете добавлять вложения

Перейти:  
cron