Начать новую тему Ответить на тему
Статистика раздачи
Размер: 498.5 МБ | Добавлен: 26 июн 2020, 20:11 | Скачали: 0
Сидеров: 0  [0 байт/сек]    Личеров: 0  [0 байт/сек]
Пред. тема | След. тема 

Автор
Сообщение

СообщениеДобавлено: 26 июн 2020, 20:11 

Ответить с цитатой 

In Strict Confidence - Zauberschloss / Kiss Your Shadow
Жанр: Electro, Industrial
Год выпуска диска: 2002
Производитель диска: Germany
Аудио кодек: FLAC
Тип рипа: tracks+.cue
Битрейт аудио: lossless
Продолжительность: 1:13:15
Трэклист:
1 Zauberschloss (Extended Version) (7:27)
2 Zauberschloss (L'âme Immortelle Version) (4:14) Remix - L'Âme Immortelle
3 Stern (v2.0) (6:46)
4 Der Hass (5:29)
5 Zauberschloss (Mechanical Fairytale Remix) (4:32) Remix - Siechtum
6 Weltuntergang (Minuswelt) (5:42)
7 Meer Aus Tränen (5:18)
8 Zauberschloss (Radio Mix) (4:36)
9 Kiss Your Shadow (Extended Version) (5:55)
10 Kiss Your Shadow (Das Ich Remix) (4:44) Remix - Das Ich
11 Kiss Your Shadow (3:59)
12 Love Will Never Be The Same (4:19)
13 Kiss Your Shadow (French Kiss Version) (6:17)
14 Weltuntergang (Roswell Mix) (3:57)
Доп. информация:
Label: Minuswelt Musikfabrik
Catalog#: minus 007
Credits: Artwork By - Bombthedot; Lyrics By - Dennis Ostermann (tracks: 1 to 3, 5 to 14), Edgar Slatnow (tracks: 1 to 3, 5, 8), Jörg Schelte (tracks: 1 to 3, 5 to 14); Songwriter - Dennis Ostermann (tracks: 1 to 3, 5 to 14), Jörg Schelte (tracks: 1 to 3, 5 to 14)
Notes: Track 14 is written as a bonus track
Код:
Exact Audio Copy V0.99 prebeta 4 from 23. January 2008
EAC extraction logfile from 22. December 2008, 13:59
In Strict Confidence / Zauberschloss / Kiss Your Shadow
Used drive  : _NEC    DVD_RW ND-3550A   Adapter: 0  ID: 0
Read mode               : Secure
Utilize accurate stream : Yes
Defeat audio cache      : Yes
Make use of C2 pointers : No
Read offset correction                      : 48
Overread into Lead-In and Lead-Out          : No
Fill up missing offset samples with silence : Yes
Delete leading and trailing silent blocks   : No
Null samples used in CRC calculations       : Yes
Used interface                              : Installed external ASPI interface
Gap handling                                : Appended to previous track
Used output format              : User Defined Encoder
Selected bitrate                : 1024 kBit/s
Quality                         : High
Add ID3 tag                     : No
Command line compressor         : D:\Programs\Tools\_Exact Audio Copy\FLAC\FLAC.EXE
Additional command line options : -8 -V -T "ARTIST=%a" -T "TITLE=%t" -T "ALBUM=%g" -T "DATE=%y" -T "TRACKNUMBER=%n" -T "GENRE=%m" -T "COMMENT=%e" %s -o %d
TOC of the extracted CD
     Track |   Start  |  Length  | Start sector | End sector
    ---------------------------------------------------------
        1  |  0:00.00 |  7:27.17 |         0    |    33541
        2  |  7:27.17 |  4:13.52 |     33542    |    52568
        3  | 11:40.69 |  6:46.19 |     52569    |    83037
        4  | 18:27.13 |  5:28.43 |     83038    |   107680
        5  | 23:55.56 |  4:32.23 |    107681    |   128103
        6  | 28:28.04 |  5:41.59 |    128104    |   153737
        7  | 34:09.63 |  5:17.62 |    153738    |   177574
        8  | 39:27.50 |  4:35.43 |    177575    |   198242
        9  | 44:03.18 |  5:54.68 |    198243    |   224860
       10  | 49:58.11 |  4:44.18 |    224861    |   246178
       11  | 54:42.29 |  3:59.05 |    246179    |   264108
       12  | 58:41.34 |  4:19.39 |    264109    |   283572
       13  | 63:00.73 |  6:16.44 |    283573    |   311816
       14  | 69:17.42 |  3:57.37 |    311817    |   329628
Track  1
     Filename G:\EAC Temporare\01 Zauberschloss (Extended Version).wav
     Pre-gap length  0:00:02.00
     Peak level 100.0 %
     Track quality 100.0 %
     Test CRC 36FCE76F
     Copy CRC 36FCE76F
     Track not present in AccurateRip database
     Copy OK
Track  2
     Filename G:\EAC Temporare\02 Zauberschloss (L'Ame Immortelle Version).wav
     Peak level 98.8 %
     Track quality 99.9 %
     Test CRC 3DD4417E
     Copy CRC 3DD4417E
     Track not present in AccurateRip database
     Copy OK
Track  3
     Filename G:\EAC Temporare\03 Stern (v2.0).wav
     Peak level 98.8 %
     Track quality 100.0 %
     Test CRC BC54D84E
     Copy CRC BC54D84E
     Track not present in AccurateRip database
     Copy OK
Track  4
     Filename G:\EAC Temporare\04 Der Hass.wav
     Peak level 100.0 %
     Track quality 100.0 %
     Test CRC D84C154A
     Copy CRC D84C154A
     Track not present in AccurateRip database
     Copy OK
Track  5
     Filename G:\EAC Temporare\05 Zauberschloss (Mechanical Fairytale Remix).wav
     Peak level 98.8 %
     Track quality 99.9 %
     Test CRC 7F7BDB47
     Copy CRC 7F7BDB47
     Track not present in AccurateRip database
     Copy OK
Track  6
     Filename G:\EAC Temporare\06 Weltuntergang (Minuswelt).wav
     Peak level 98.8 %
     Track quality 100.0 %
     Test CRC A4E89009
     Copy CRC A4E89009
     Track not present in AccurateRip database
     Copy OK
Track  7
     Filename G:\EAC Temporare\07 Meer Aus Tranen.wav
     Peak level 98.8 %
     Track quality 100.0 %
     Test CRC 2211C072
     Copy CRC 2211C072
     Track not present in AccurateRip database
     Copy OK
Track  8
     Filename G:\EAC Temporare\08 Zauberschloss (Radio Mix).wav
     Peak level 100.0 %
     Track quality 100.0 %
     Test CRC B709FA81
     Copy CRC B709FA81
     Track not present in AccurateRip database
     Copy OK
Track  9
     Filename G:\EAC Temporare\09 Kiss Your Shadow (Extended Version).wav
     Peak level 99.4 %
     Track quality 100.0 %
     Test CRC EB603F82
     Copy CRC EB603F82
     Track not present in AccurateRip database
     Copy OK
Track 10
     Filename G:\EAC Temporare\10 Kiss Your Shadow (Das Ich Remix).wav
     Peak level 100.0 %
     Track quality 99.9 %
     Test CRC 512EF4C6
     Copy CRC 512EF4C6
     Track not present in AccurateRip database
     Copy OK
Track 11
     Filename G:\EAC Temporare\11 Kiss Your Shadow.wav
     Peak level 99.4 %
     Track quality 99.9 %
     Test CRC AA661688
     Copy CRC AA661688
     Track not present in AccurateRip database
     Copy OK
Track 12
     Filename G:\EAC Temporare\12 Love Will Never Be The Same.wav
     Peak level 100.0 %
     Track quality 100.0 %
     Test CRC 29063FA7
     Copy CRC 29063FA7
     Track not present in AccurateRip database
     Copy OK
Track 13
     Filename G:\EAC Temporare\13 Kiss Your Shadow (French Kiss Version).wav
     Peak level 91.1 %
     Track quality 100.0 %
     Test CRC 9134E3C8
     Copy CRC 9134E3C8
     Track not present in AccurateRip database
     Copy OK
Track 14
     Filename G:\EAC Temporare\14 Weltuntergang (Roswell Mix).wav
     Peak level 99.9 %
     Track quality 100.0 %
     Test CRC 86F98D78
     Copy CRC 86F98D78
     Track not present in AccurateRip database
     Copy OK
None of the tracks are present in the AccurateRip database
No errors occurred
End of status report
Зарелизено на rutracker.org

на раздаче ВСЕГДА в нерабочее время (вечер, ночь, выходные), в остальное время как получится
Правила, инструкции, FAQ!!!
Торрент  Добавлен [26 июн 2020, 20:11] Скачать торрент Магнет ссылка
Скачать торрент
[ Размер 21.37 КБ / Просмотров 10 ]

Статус
Проверен 
 
Размер  498.5 МБ
Приватный: Нет (DHT включён)
.torrent скачан  0
 


     Отправить личное сообщение
   
Страница 1 из 1
Показать сообщения за:  Поле сортировки  
Начать новую тему Ответить на тему


Сейчас этот форум просматривают: нет зарегистрированных пользователей и гости: 0


Вы не можете начинать темы
Вы не можете отвечать на сообщения
Вы не можете редактировать свои сообщения
Вы не можете удалять свои сообщения
Вы не можете добавлять вложения

Перейти:  
cron