Начать новую тему Ответить на тему
Статистика раздачи
Размер: 302.62 МБ | Добавлен: 26 июн 2020, 20:11 | Скачали: 0
Сидеров: 0  [0 байт/сек]    Личеров: 0  [0 байт/сек]
Пред. тема | След. тема 

Автор
Сообщение

СообщениеДобавлено: 26 июн 2020, 20:11 

Ответить с цитатой 

In Strict Confidence - Zauberschloss
Жанр: Electro.Industrial
Год выпуска диска: 2001
Производитель диска: Германия
Аудио кодек: FLAC
Тип рипа: tracks+.cue
Битрейт аудио: lossless
Трэклист:
01 Zauberschloss (Extended Version) (7:26)
02 Zauberschloss (L'âme Immortelle Version) (4:14)Remix - L'Âme Immortelle
03 Stern (Version 2.0) (6:46)
04 Der Hass (5:26)Written-By - Kramm, Ackermann
05 Zauberschloss (Mechanical Fairy Tale Remix) (4:30)Remix - Siechtum
06 Weltuntergang (Minuswelt) (5:39)
07 Meer Aus Tränen (5:16)
08 Zauberschloss (Radio Mix) (4:33)
Код:
Exact Audio Copy V0.99 prebeta 4 from 23. January 2008
EAC extraction logfile from 17. September 2008, 13:06
In Strict Confidence / Zauberschloss
Used drive  : TSSTcorpDVD+-RW TS-H653B   Adapter: 1  ID: 0
Read mode               : Secure
Utilize accurate stream : Yes
Defeat audio cache      : Yes
Make use of C2 pointers : No
Read offset correction                      : 6
Overread into Lead-In and Lead-Out          : No
Fill up missing offset samples with silence : Yes
Delete leading and trailing silent blocks   : No
Null samples used in CRC calculations       : Yes
Used interface                              : Installed external ASPI interface
Gap handling                                : Appended to previous track
Used output format              : User Defined Encoder
Selected bitrate                : 192 kBit/s
Quality                         : High
Add ID3 tag                     : No
Command line compressor         : C:\Program Files\Exact Audio Copy\Flac\flac.exe
Additional command line options : -V -8 -T "artist=%a" -T "title=%t" -T "album=%g" -T "date=%y" -T "tracknumber=%n" -T "genre=%m" %s
TOC of the extracted CD
     Track |   Start  |  Length  | Start sector | End sector
    ---------------------------------------------------------
        1  |  0:00.00 |  7:26.17 |         0    |    33466
        2  |  7:26.17 |  4:14.54 |     33467    |    52570
        3  | 11:40.71 |  6:46.20 |     52571    |    83040
        4  | 18:27.16 |  5:26.41 |     83041    |   107531
        5  | 23:53.57 |  4:30.21 |    107532    |   127802
        6  | 28:24.03 |  5:39.57 |    127803    |   153284
        7  | 34:03.60 |  5:16.62 |    153285    |   177046
        8  | 39:20.47 |  4:33.41 |    177047    |   197562
Track  1
     Filename C:\A\In Strict Confidence - Zauberschloss [flac]\01 - Zauberschloss [Extended Version].wav
     Pre-gap length  0:00:02.00
     Peak level 100.0 %
     Track quality 100.0 %
     Test CRC 0AFDE329
     Copy CRC 0AFDE329
     Accurately ripped (confidence 2)  [D368DD44]
     Copy OK
Track  2
     Filename C:\A\In Strict Confidence - Zauberschloss [flac]\02 - Zauberschloss [Lґame Immortelle Version].wav
     Pre-gap length  0:00:02.00
     Peak level 98.8 %
     Track quality 100.0 %
     Test CRC 6151580D
     Copy CRC 6151580D
     Accurately ripped (confidence 2)  [0A95C0FD]
     Copy OK
Track  3
     Filename C:\A\In Strict Confidence - Zauberschloss [flac]\03 - Stern [v2.0].wav
     Peak level 98.8 %
     Track quality 100.0 %
     Test CRC EEEE927E
     Copy CRC EEEE927E
     Accurately ripped (confidence 2)  [A8D70BF8]
     Copy OK
Track  4
     Filename C:\A\In Strict Confidence - Zauberschloss [flac]\04 - Der Hass.wav
     Pre-gap length  0:00:02.00
     Peak level 100.0 %
     Track quality 100.0 %
     Test CRC 047C32EC
     Copy CRC 047C32EC
     Accurately ripped (confidence 2)  [400447E4]
     Copy OK
Track  5
     Filename C:\A\In Strict Confidence - Zauberschloss [flac]\05 - Zauberschloss [Mechanical Fairy Tale Remix].wav
     Peak level 98.8 %
     Track quality 99.9 %
     Test CRC 562B46ED
     Copy CRC 562B46ED
     Accurately ripped (confidence 2)  [0F4FF73C]
     Copy OK
Track  6
     Filename C:\A\In Strict Confidence - Zauberschloss [flac]\06 - Weltuntergang [Minuswelt].wav
     Peak level 98.8 %
     Track quality 100.0 %
     Test CRC 4914CE35
     Copy CRC 4914CE35
     Accurately ripped (confidence 2)  [B58BB284]
     Copy OK
Track  7
     Filename C:\A\In Strict Confidence - Zauberschloss [flac]\07 - Meer Aus Trдnen.wav
     Peak level 98.8 %
     Track quality 100.0 %
     Test CRC D40E05F1
     Copy CRC D40E05F1
     Accurately ripped (confidence 2)  [3A93125C]
     Copy OK
Track  8
     Filename C:\A\In Strict Confidence - Zauberschloss [flac]\08 - Zauberschloss [Radio Mix].wav
     Peak level 100.0 %
     Track quality 100.0 %
     Test CRC 1A81D69C
     Copy CRC 1A81D69C
     Accurately ripped (confidence 2)  [9DC624C8]
     Copy OK
All tracks accurately ripped
No errors occurred
End of status report
Правила, инструкции, FAQ!!!
Торрент  Добавлен [26 июн 2020, 20:11] Скачать торрент Магнет ссылка
Скачать торрент
[ Размер 12.93 КБ / Просмотров 2 ]

Статус
Проверен 
 
Размер  302.62 МБ
Приватный: Нет (DHT включён)
.torrent скачан  0
 


     Отправить личное сообщение
   
Страница 1 из 1
Показать сообщения за:  Поле сортировки  
Начать новую тему Ответить на тему


Сейчас этот форум просматривают: нет зарегистрированных пользователей и гости: 0


Вы не можете начинать темы
Вы не можете отвечать на сообщения
Вы не можете редактировать свои сообщения
Вы не можете удалять свои сообщения
Вы не можете добавлять вложения

Перейти:  
cron