Начать новую тему Ответить на тему
Статистика раздачи
Размер: 531.45 МБ | Добавлен: 26 июн 2020, 20:11 | Скачали: 0
Сидеров: 0  [0 байт/сек]    Личеров: 0  [0 байт/сек]
Пред. тема | След. тема 

Автор
Сообщение

СообщениеДобавлено: 26 июн 2020, 20:11 

Ответить с цитатой 

In Strict Confidence - Mistrust The Angels
Жанр: Electro, Industrial
Год выпуска диска: 2002
Производитель диска: Germany
Аудио кодек: FLAC
Тип рипа: image+.cue
Битрейт аудио: lossless
Продолжительность: 1:13:48
Трэклист:
-1 Les Miroirs (10:34)
1 Send A Sign (5:42)
2 Herzattacke (6:56)
3 Au Milieu Des Anges (6:58)
4 Engelsstaub (4:52)
5 When The Heart Starts To Bleed (5:56)
6 Schlecht Geträumt (4:56)
7 Horizont (6:00)
8 Lost In The Night (6:05)
9 It Seems Lost... (0:05)
10 Der Vampir Und Dessen Verwandlung (6:55)
11 Der Tag An Dem Es Frösche Regnet (3:36)
12 The Prayers Of The Mute (5:08)
Доп. информация:
Label: Minuswelt Musikfabrik
Catalog#: minus 004
Credits: Mastered By - Olaf Wollschläger
Notes: The first track is a hidden track. To play this track with a regular cd-player, you have to start at track number one and manually rewind the ten minutes. The track will show up as -01 and count the track time backwards.
Код:
Exact Audio Copy V0.99 prebeta 4 from 23. January 2008
EAC extraction logfile from 21. December 2008, 2:46
In Strict Confidence / Mistrust The Angels
Used drive  : TEAC    CD-W540E   Adapter: 3  ID: 0
Read mode               : Secure
Utilize accurate stream : Yes
Defeat audio cache      : Yes
Make use of C2 pointers : No
Read offset correction                      : 686
Overread into Lead-In and Lead-Out          : No
Fill up missing offset samples with silence : Yes
Delete leading and trailing silent blocks   : No
Null samples used in CRC calculations       : Yes
Used interface                              : Installed external ASPI interface
Gap handling                                : Appended to previous track
Used output format              : User Defined Encoder
Selected bitrate                : 1024 kBit/s
Quality                         : High
Add ID3 tag                     : No
Command line compressor         : D:\Programs\Tools\_Exact Audio Copy\FLAC\FLAC.EXE
Additional command line options : -8 -V -T "ARTIST=%a" -T "TITLE=%t" -T "ALBUM=%g" -T "DATE=%y" -T "TRACKNUMBER=%n" -T "GENRE=%m" -T "COMMENT=%e" %s -o %d
TOC of the extracted CD
     Track |   Start  |  Length  | Start sector | End sector
    ---------------------------------------------------------
        1  | 10:34.29 |  5:42.13 |     47579    |    73241
        2  | 16:16.42 |  6:56.64 |     73242    |   104505
        3  | 23:13.31 |  6:58.37 |    104506    |   135892
        4  | 30:11.68 |  4:52.20 |    135893    |   157812
        5  | 35:04.13 |  5:56.15 |    157813    |   184527
        6  | 41:00.28 |  4:56.25 |    184528    |   206752
        7  | 45:56.53 |  6:00.43 |    206753    |   233795
        8  | 51:57.21 |  6:05.11 |    233796    |   261181
        9  | 58:02.32 |  0:05.19 |    261182    |   261575
       10  | 58:07.51 |  6:55.04 |    261576    |   292704
       11  | 65:02.55 |  3:36.15 |    292705    |   308919
       12  | 68:38.70 |  5:08.47 |    308920    |   332066
Track  1
     Filename G:\EAC Temporare\01 Send A Sign.wav
     Pre-gap length  0:10:36.29
     Peak level 98.5 %
     Track quality 100.0 %
     Test CRC 6F36B379
     Copy CRC 6F36B379
     Accurately ripped (confidence 2)  [A47B69B2]
     Copy OK
Track  2
     Filename G:\EAC Temporare\02 Herzattacke.wav
     Peak level 99.0 %
     Track quality 100.0 %
     Test CRC B40500AD
     Copy CRC B40500AD
     Accurately ripped (confidence 2)  [13388C6F]
     Copy OK
Track  3
     Filename G:\EAC Temporare\03 Au Milieu Des Anges.wav
     Peak level 99.0 %
     Track quality 100.0 %
     Test CRC 5C2F928F
     Copy CRC 5C2F928F
     Accurately ripped (confidence 2)  [D790C6DC]
     Copy OK
Track  4
     Filename G:\EAC Temporare\04 Engelsstaub.wav
     Peak level 99.0 %
     Track quality 100.0 %
     Test CRC 97339F16
     Copy CRC 97339F16
     Accurately ripped (confidence 2)  [915F370B]
     Copy OK
Track  5
     Filename G:\EAC Temporare\05 When The Heart Starts To Bleed.wav
     Peak level 88.2 %
     Track quality 100.0 %
     Test CRC 91A9C8A7
     Copy CRC 91A9C8A7
     Accurately ripped (confidence 2)  [9CB31B8C]
     Copy OK
Track  6
     Filename G:\EAC Temporare\06 Schlecht Getraumt.wav
     Peak level 99.0 %
     Track quality 100.0 %
     Test CRC E885370D
     Copy CRC E885370D
     Accurately ripped (confidence 2)  [A524C390]
     Copy OK
Track  7
     Filename G:\EAC Temporare\07 Horizont.wav
     Peak level 99.0 %
     Track quality 100.0 %
     Test CRC 3439AC9B
     Copy CRC 3439AC9B
     Accurately ripped (confidence 2)  [52329141]
     Copy OK
Track  8
     Filename G:\EAC Temporare\08 Lost In The Night.wav
     Peak level 99.0 %
     Track quality 100.0 %
     Test CRC 83D25189
     Copy CRC 83D25189
     Accurately ripped (confidence 2)  [46DAB645]
     Copy OK
Track  9
     Filename G:\EAC Temporare\09 It Seems Lost....wav
     Peak level 0.0 %
     Track quality 100.0 %
     Test CRC 350337E2
     Copy CRC 350337E2
     Track not present in AccurateRip database
     Copy OK
Track 10
     Filename G:\EAC Temporare\10 Der Vampir Und Dessen Verwandlung.wav
     Peak level 99.0 %
     Track quality 99.9 %
     Test CRC 0FB532A1
     Copy CRC 0FB532A1
     Accurately ripped (confidence 2)  [654721EB]
     Copy OK
Track 11
     Filename G:\EAC Temporare\11 Der Tag An Dem Es Frosche Regnet.wav
     Peak level 99.0 %
     Track quality 100.0 %
     Test CRC 4F5D8439
     Copy CRC 4F5D8439
     Accurately ripped (confidence 2)  [C29312CA]
     Copy OK
Track 12
     Filename G:\EAC Temporare\12 The Prayers Of The Mute.wav
     Peak level 99.0 %
     Track quality 100.0 %
     Test CRC EB3CECCC
     Copy CRC EB3CECCC
     Accurately ripped (confidence 2)  [31EA5D45]
     Copy OK
11 track(s) accurately ripped
 1 track(s) not present in the AccurateRip database
Some tracks could not be verified as accurate
No errors occurred
End of status report
Код:
Exact Audio Copy V0.99 prebeta 4 from 23. January 2008
EAC extraction logfile from 20. December 2008, 21:39
In Strict Confidence / Mistrust The Angels
Used drive  : TEAC    CD-W540E   Adapter: 3  ID: 0
Read mode               : Secure
Utilize accurate stream : Yes
Defeat audio cache      : Yes
Make use of C2 pointers : No
Read offset correction                      : 686
Overread into Lead-In and Lead-Out          : No
Fill up missing offset samples with silence : Yes
Delete leading and trailing silent blocks   : No
Null samples used in CRC calculations       : Yes
Used interface                              : Installed external ASPI interface
Used output format              : User Defined Encoder
Selected bitrate                : 1024 kBit/s
Quality                         : High
Add ID3 tag                     : No
Command line compressor         : D:\Programs\Tools\_Exact Audio Copy\FLAC\FLAC.EXE
Additional command line options : -8 -V -T "ARTIST=%a" -T "TITLE=%t" -T "ALBUM=%g" -T "DATE=%y" -T "TRACKNUMBER=%n" -T "GENRE=%m" -T "COMMENT=%e" %s -o %d
TOC of the extracted CD
     Track |   Start  |  Length  | Start sector | End sector
    ---------------------------------------------------------
        1  | 10:34.29 |  5:42.13 |     47579    |    73241
        2  | 16:16.42 |  6:56.64 |     73242    |   104505
        3  | 23:13.31 |  6:58.37 |    104506    |   135892
        4  | 30:11.68 |  4:52.20 |    135893    |   157812
        5  | 35:04.13 |  5:56.15 |    157813    |   184527
        6  | 41:00.28 |  4:56.25 |    184528    |   206752
        7  | 45:56.53 |  6:00.43 |    206753    |   233795
        8  | 51:57.21 |  6:05.11 |    233796    |   261181
        9  | 58:02.32 |  0:05.19 |    261182    |   261575
       10  | 58:07.51 |  6:55.04 |    261576    |   292704
       11  | 65:02.55 |  3:36.15 |    292705    |   308919
       12  | 68:38.70 |  5:08.47 |    308920    |   332066
Range status and errors
Selected range   (Sectors 0-47578)
     Filename G:\EAC Temporare\00 Les Miroirs.wav
     Peak level 98.5 %
     Range quality 100.0 %
     Copy CRC 34212EF9
     Copy OK
No errors occurred
AccurateRip summary
No tracks could be verified as accurate
End of status report
------------------------------------------------------------
Exact Audio Copy V0.99 prebeta 4 from 23. January 2008
EAC extraction logfile from 20. December 2008, 21:42
In Strict Confidence / Mistrust The Angels
Used drive  : TEAC    CD-W540E   Adapter: 3  ID: 0
Read mode               : Secure
Utilize accurate stream : Yes
Defeat audio cache      : Yes
Make use of C2 pointers : No
Read offset correction                      : 686
Overread into Lead-In and Lead-Out          : No
Fill up missing offset samples with silence : Yes
Delete leading and trailing silent blocks   : No
Null samples used in CRC calculations       : Yes
Used interface                              : Installed external ASPI interface
Used output format              : User Defined Encoder
Selected bitrate                : 1024 kBit/s
Quality                         : High
Add ID3 tag                     : No
Command line compressor         : D:\Programs\Tools\_Exact Audio Copy\FLAC\FLAC.EXE
Additional command line options : -8 -V -T "ARTIST=%a" -T "TITLE=%t" -T "ALBUM=%g" -T "DATE=%y" -T "TRACKNUMBER=%n" -T "GENRE=%m" -T "COMMENT=%e" %s -o %d
TOC of the extracted CD
     Track |   Start  |  Length  | Start sector | End sector
    ---------------------------------------------------------
        1  | 10:34.29 |  5:42.13 |     47579    |    73241
        2  | 16:16.42 |  6:56.64 |     73242    |   104505
        3  | 23:13.31 |  6:58.37 |    104506    |   135892
        4  | 30:11.68 |  4:52.20 |    135893    |   157812
        5  | 35:04.13 |  5:56.15 |    157813    |   184527
        6  | 41:00.28 |  4:56.25 |    184528    |   206752
        7  | 45:56.53 |  6:00.43 |    206753    |   233795
        8  | 51:57.21 |  6:05.11 |    233796    |   261181
        9  | 58:02.32 |  0:05.19 |    261182    |   261575
       10  | 58:07.51 |  6:55.04 |    261576    |   292704
       11  | 65:02.55 |  3:36.15 |    292705    |   308919
       12  | 68:38.70 |  5:08.47 |    308920    |   332066
Range status and errors
Selected range   (Sectors 0-47578)
     Filename G:\EAC Temporare\00 Les Miroirs.wav
     Peak level 98.5 %
     Range quality 100.0 %
     Copy CRC 34212EF9
     Copy OK
No errors occurred
AccurateRip summary
No tracks could be verified as accurate
End of status report
Зарелизено на rutracker.org

на раздаче ВСЕГДА в нерабочее время (вечер, ночь, выходные), в остальное время как получится
Правила, инструкции, FAQ!!!
Торрент  Добавлен [26 июн 2020, 20:11] Скачать торрент Магнет ссылка
Скачать торрент
[ Размер 12.27 КБ / Просмотров 8 ]

Статус
Проверен 
 
Размер  531.45 МБ
Приватный: Нет (DHT включён)
.torrent скачан  0
 


     Отправить личное сообщение
   
Страница 1 из 1
Показать сообщения за:  Поле сортировки  
Начать новую тему Ответить на тему


Сейчас этот форум просматривают: нет зарегистрированных пользователей и гости: 0


Вы не можете начинать темы
Вы не можете отвечать на сообщения
Вы не можете редактировать свои сообщения
Вы не можете удалять свои сообщения
Вы не можете добавлять вложения

Перейти:  
cron