Начать новую тему Ответить на тему
Статистика раздачи
Размер: 366.46 МБ | Добавлен: 26 июн 2020, 20:11 | Скачали: 0
Сидеров: 0  [0 байт/сек]    Личеров: 0  [0 байт/сек]
Пред. тема | След. тема 

Автор
Сообщение

СообщениеДобавлено: 26 июн 2020, 20:11 

Ответить с цитатой 

In Strict Confidence - Herzattacke (Maxi-Single)
Жанр: Electro, Industrial
Год выпуска диска: 2002
Производитель диска: Germany
Аудио кодек: FLAC
Тип рипа: tracks+.cue
Битрейт аудио: lossless
Продолжительность: 50:48
Трэклист:
1 Herzattacke (Extended Version) (8:34)
2 Herzattacke (Club Mix) (7:43) Remix - Olaf Wollschläger
3 Into Ashes (5:34)
4 Kaleidoskop (6:41)
5 Herzattacke (Clan Of Xymox Remix) Remix - Ronny Moorings
6 Herzattacke (C.P.R. Mix) Remix - Chris Peterson
7 The Final Embrace
8 Herzattacke (Single Version)
Доп. информация:
Label: Minuswelt Musikfabrik
Catalog#: minus 003pr
Credits: Written-By - Dennis Ostermann, Jörg Schelte, Stefan Vesper
Код:
Exact Audio Copy V0.99 prebeta 4 from 23. January 2008
EAC extraction logfile from 21. December 2008, 15:41
In Strict Confidence / Herzattacke
Used drive  : _NEC    DVD_RW ND-3550A   Adapter: 0  ID: 0
Read mode               : Secure
Utilize accurate stream : Yes
Defeat audio cache      : Yes
Make use of C2 pointers : No
Read offset correction                      : 48
Overread into Lead-In and Lead-Out          : No
Fill up missing offset samples with silence : Yes
Delete leading and trailing silent blocks   : No
Null samples used in CRC calculations       : Yes
Used interface                              : Installed external ASPI interface
Gap handling                                : Appended to previous track
Used output format              : User Defined Encoder
Selected bitrate                : 1024 kBit/s
Quality                         : High
Add ID3 tag                     : No
Command line compressor         : D:\Programs\Tools\_Exact Audio Copy\FLAC\FLAC.EXE
Additional command line options : -8 -V -T "ARTIST=%a" -T "TITLE=%t" -T "ALBUM=%g" -T "DATE=%y" -T "TRACKNUMBER=%n" -T "GENRE=%m" -T "COMMENT=%e" %s -o %d
TOC of the extracted CD
     Track |   Start  |  Length  | Start sector | End sector
    ---------------------------------------------------------
        1  |  0:00.00 |  8:34.68 |         0    |    38617
        2  |  8:34.68 |  7:43.06 |     38618    |    73348
        3  | 16:17.74 |  5:34.25 |     73349    |    98423
        4  | 21:52.24 |  6:41.24 |     98424    |   128522
        5  | 28:33.48 |  8:14.57 |    128523    |   165629
        6  | 36:48.30 |  5:57.74 |    165630    |   192478
        7  | 42:46.29 |  3:26.41 |    192479    |   207969
        8  | 46:12.70 |  4:35.28 |    207970    |   228622
Track  1
     Filename G:\EAC Temporare\01 Herzattacke (Extended Version).wav
     Pre-gap length  0:00:02.00
     Peak level 100.0 %
     Track quality 100.0 %
     Test CRC 5DECD39C
     Copy CRC 5DECD39C
     Accurately ripped (confidence 4)  [216E1848]
     Copy OK
Track  2
     Filename G:\EAC Temporare\02 Herzattacke (Club Mix).wav
     Pre-gap length  0:00:01.45
     Peak level 100.0 %
     Track quality 100.0 %
     Test CRC 74775A94
     Copy CRC 74775A94
     Accurately ripped (confidence 4)  [74CBF9EA]
     Copy OK
Track  3
     Filename G:\EAC Temporare\03 Into Ashes.wav
     Pre-gap length  0:00:01.45
     Peak level 100.0 %
     Track quality 100.0 %
     Test CRC 255D9FF7
     Copy CRC 255D9FF7
     Accurately ripped (confidence 4)  [834233C1]
     Copy OK
Track  4
     Filename G:\EAC Temporare\04 Kaleidoskop.wav
     Peak level 100.0 %
     Track quality 100.0 %
     Test CRC B7ECB29B
     Copy CRC B7ECB29B
     Accurately ripped (confidence 4)  [2E89D7E2]
     Copy OK
Track  5
     Filename G:\EAC Temporare\05 Herzattacke (Clan Of Xymox Remix).wav
     Pre-gap length  0:00:01.45
     Peak level 100.0 %
     Track quality 99.9 %
     Test CRC D37E1201
     Copy CRC D37E1201
     Accurately ripped (confidence 3)  [EF71C1D5]
     Copy OK
Track  6
     Filename G:\EAC Temporare\06 Herzattacke (C.P.R. Mix).wav
     Pre-gap length  0:00:01.45
     Peak level 100.0 %
     Track quality 100.0 %
     Test CRC 35DE9262
     Copy CRC 35DE9262
     Accurately ripped (confidence 3)  [9E1A75D3]
     Copy OK
Track  7
     Filename G:\EAC Temporare\07 The Final Embrace.wav
     Peak level 100.0 %
     Track quality 99.9 %
     Test CRC 11924232
     Copy CRC 11924232
     Accurately ripped (confidence 3)  [489F322A]
     Copy OK
Track  8
     Filename G:\EAC Temporare\08 Herzattacke (Single Version).wav
     Pre-gap length  0:00:01.45
     Peak level 100.0 %
     Track quality 100.0 %
     Test CRC A7748898
     Copy CRC A7748898
     Accurately ripped (confidence 3)  [E98BA245]
     Copy OK
All tracks accurately ripped
No errors occurred
End of status report

Зарелизено на rutracker.org

на раздаче ВСЕГДА в нерабочее время (вечер, ночь, выходные), в остальное время как получится
Правила, инструкции, FAQ!!!
Торрент  Добавлен [26 июн 2020, 20:11] Скачать торрент Магнет ссылка
Скачать торрент
[ Размер 15.72 КБ / Просмотров 9 ]

Статус
Проверен 
 
Размер  366.46 МБ
Приватный: Нет (DHT включён)
.torrent скачан  0
 


     Отправить личное сообщение
   
Страница 1 из 1
Показать сообщения за:  Поле сортировки  
Начать новую тему Ответить на тему


Сейчас этот форум просматривают: нет зарегистрированных пользователей и гости: 0


Вы не можете начинать темы
Вы не можете отвечать на сообщения
Вы не можете редактировать свои сообщения
Вы не можете удалять свои сообщения
Вы не можете добавлять вложения

Перейти:  
cron