Начать новую тему Ответить на тему
Статистика раздачи
Размер: 639.86 МБ | Добавлен: 26 июн 2020, 20:11 | Скачали: 0
Сидеров: 0  [0 байт/сек]    Личеров: 0  [0 байт/сек]
Пред. тема | След. тема 

Автор
Сообщение

СообщениеДобавлено: 26 июн 2020, 20:11 

Ответить с цитатой 

In Strict Confidence - Face The Fear

Жанр: Electro, Industrial
Страна-производитель диска: Germany
Год издания диска: 1998
Издатель (лейбл): Zoth Ommog
Номер по каталогу: CD ZOT 204
Страна: Germany
Аудио кодек: FLAC (*.flac)
Тип рипа: image+.cue
Битрейт аудио: lossless
Продолжительность: 00:52:22
Источник (релизер): Собственный рип
Наличие сканов в содержимом раздачи: да, PNG 600dpi
01. Empire 5:53
02. Alles In Mir 6:05
03. Prediction 4:31
04. Industrial Love 5:47
05. Hidden Thoughts 4:57
06. Room 101 5:13
07. Engel Mit Feuer Und Schwert 4:27
08. I Don't Care 3:08
09. Way Of Redemption 6:10
10. Ein Mensch, Ein Kampfer Und Ein Schlachter 6:07
Код:
Exact Audio Copy V0.99 prebeta 4 from 23. January 2008
Отчёт EAC об извлечении, выполненном 20. ноября 2010, 20:07
In Strict Confidence / Face The Fear
Дисковод: PIONEER DVD-RW  DVR-212   Adapter: 3  ID: 1
Режим чтения                 : Достоверность
Использование точного потока : Да
Отключение кэша аудио        : Да
Использование указателей C2  : Нет
Коррекция смещения при чтении                     : 48
Способность читать области Lead-in и Lead-out     : Нет
Заполнение пропущенных сэмплов тишиной            : Да
Удаление блоков с тишиной в начале и конце        : Нет
При вычислениях CRC использовались нулевые сэмплы : Да
Интерфейс                                         : Встроенный Win32-интерфейс для Win NT/2000
Выходной формат          : Пользовательский кодировщик
Выбранный битрейт        : 1024 kBit/s
Качество                 : Высокий
Добавление ID3-тэга      : Нет
Утилита сжатия           : C:\Program Files (x86)\Exact Audio Copy\FLAC\FLAC.EXE
Дополнительные параметры : -8 -V -T "ARTIST=%a" -T "TITLE=%t" -T "ALBUM=%g" -T "DATE=%y" -T "TRACKNUMBER=%n" -T "GENRE=%m" -T "COMMENT=%e" %s -o %d
TOC извлечённого CD
     Трек |   Старт  | Длительность | Начальный сектор | Конечный сектор
    ---------------------------------------------------------------------
       1  |  0:00.00 |    5:53.70   |           0      |      26544
       2  |  5:53.70 |    6:05.24   |       26545      |      53943
       3  | 11:59.19 |    4:31.30   |       53944      |      74298
       4  | 16:30.49 |    5:47.38   |       74299      |     100361
       5  | 22:18.12 |    4:57.40   |      100362      |     122676
       6  | 27:15.52 |    5:13.01   |      122677      |     146152
       7  | 32:28.53 |    4:27.28   |      146153      |     166205
       8  | 36:56.06 |    3:08.08   |      166206      |     180313
       9  | 40:04.14 |    6:10.23   |      180314      |     208086
      10  | 46:14.37 |    6:07.63   |      208087      |     235674
Характеристики диапазона извлечения и сообщения об ошибках
Выбранный диапазон
     Имя файла D:\РАЗДАЧИ!!!!\In Strict Confidence - Face The Fear - 1998\In Strict Confidence - Face The Fear.wav
     Пиковый уровень 100.0 %
     Качество диапазона 99.9 %
     CRC теста BD174691
     CRC копии BD174691
     Копирование... OK
Ошибок не произошло
AccurateRip: сводка
Трек  1  точное извлечение (доверие 4)  [C2654DD0]
Трек  2  точное извлечение (доверие 4)  [AB84BF8A]
Трек  3  точное извлечение (доверие 4)  [4B768B36]
Трек  4  точное извлечение (доверие 4)  [7AA03EB6]
Трек  5  точное извлечение (доверие 4)  [545D1A3D]
Трек  6  точное извлечение (доверие 4)  [9D4AE962]
Трек  7  точное извлечение (доверие 4)  [B8618234]
Трек  8  точное извлечение (доверие 4)  [4101688F]
Трек  9  точное извлечение (доверие 4)  [4E370B5A]
Трек 10  точное извлечение (доверие 4)  [8B1F2CFB]
Все треки извлечены точно
Конец отчёта
Код:
REM GENRE Industrial
REM DATE 1998
REM DISCID 840C460A
REM COMMENT "ExactAudioCopy v0.99pb4"
PERFORMER "In Strict Confidence"
TITLE "Face The Fear"
FILE "In Strict Confidence - Face The Fear.flac" WAVE
  TRACK 01 AUDIO
    TITLE "Empire"
    PERFORMER "In Strict Confidence"
    FLAGS DCP
    INDEX 01 00:00:00
  TRACK 02 AUDIO
    TITLE "Alles In Mir"
    PERFORMER "In Strict Confidence"
    FLAGS DCP
    INDEX 00 05:52:25
    INDEX 01 05:53:70
  TRACK 03 AUDIO
    TITLE "Prediction"
    PERFORMER "In Strict Confidence"
    FLAGS DCP
    INDEX 00 11:57:49
    INDEX 01 11:59:19
  TRACK 04 AUDIO
    TITLE "Industrial Love"
    PERFORMER "In Strict Confidence"
    FLAGS DCP
    INDEX 00 16:29:04
    INDEX 01 16:30:49
  TRACK 05 AUDIO
    TITLE "Hidden Thoughts"
    PERFORMER "In Strict Confidence"
    FLAGS DCP
    INDEX 00 22:16:42
    INDEX 01 22:18:12
  TRACK 06 AUDIO
    TITLE "Room 101"
    PERFORMER "In Strict Confidence"
    FLAGS DCP
    INDEX 00 27:14:07
    INDEX 01 27:15:52
  TRACK 07 AUDIO
    TITLE "Engel Mit Feuer Und Schwert"
    PERFORMER "In Strict Confidence"
    FLAGS DCP
    INDEX 00 32:27:08
    INDEX 01 32:28:53
  TRACK 08 AUDIO
    TITLE "Way Of Redemption"
    PERFORMER "In Strict Confidence"
    FLAGS DCP
    INDEX 00 36:54:36
    INDEX 01 36:56:06
  TRACK 09 AUDIO
    TITLE "I Don't Care"
    PERFORMER "In Strict Confidence"
    FLAGS DCP
    INDEX 00 40:02:46
    INDEX 01 40:04:14
  TRACK 10 AUDIO
    TITLE "Ein Mensch, Ein Kдmpfer Und Ein Schlдchter"
    PERFORMER "In Strict Confidence"
    FLAGS DCP
    INDEX 00 46:12:67
    INDEX 01 46:14:37
   
Код:
AUDIOCHECKER v2.0 beta (build 457) - by Dester - opdester@freemail.hu
~~~~~~~~~~~~~~~~~~~~~~~~~~~~~~~~~~
-=== DO NOT EDIT THIS FILE! ===-
Path: ...\In Strict Confidence - Face The Fear - 1998
1 -=- In Strict Confidence - Face The Fear.flac -=- CDDA (100%)
130192564
In Strict Confidence — это немецкая electro-industrial группа. Была основана в 1989/1990 году,
до 1992 годы были известны как Seal of Secrecy. In Strict Confidence имеет контракты с несколькими лейблами,
включая Metropolis Records и WTII Records.
In Strict Confidence изначально был квартетом, однако к 1992 году стал дуэтом (Dennis Ostermann and Jörg Schelte),
и выпустил 2 демо кассеты. Дебютный релиз 'Cryogenix' состоялся на лейбле Zoth Ommog в 1996 году
(первоначальный выпуск разошёлся за неделю), далее вышел EP 'Collapse'.
Группа покинула лейбл после выпуска 'Face The Fear' в 1998 году,
альбом 'Love Kills!' вышел на лейбле Bloodline 2 года спустя.
Stefan Vesper присоединился к группе в 2002 выпустив 'Mistrust the Angels',
'Holy' и 'Exile Paradise' появлявшихся с интервалом в 2 года.
В этих альбомах существенно возросло использование женского вокала Antje Schulz, вокалистки из Chandeen.
У Dennis Ostermann есть сайд проект Controlled Fusion.
Stefan Vesper выпускался под собственным именем, а также как Steve Dragon.
Dennis Ostermann (вокал, композитор)
Jörg Schelte (композитор, программирование)
Stefan Vesper (барабаны, композитор) (ушёл в 1992 году, вернулся в 2001 году)
Antje Schulz (вокал, тексты)
Thomas Steiger — клавиши (покинул группу в 1992 году, продолжает сотрудничество как немузыкант)
Правила, инструкции, FAQ!!!
Торрент  Добавлен [26 июн 2020, 20:11] Скачать торрент Магнет ссылка
Скачать торрент
[ Размер 13.71 КБ / Просмотров 8 ]

Статус
Проверен 
 
Размер  639.86 МБ
Приватный: Нет (DHT включён)
.torrent скачан  0
 


     Отправить личное сообщение
   
Страница 1 из 1
Показать сообщения за:  Поле сортировки  
Начать новую тему Ответить на тему


Сейчас этот форум просматривают: нет зарегистрированных пользователей и гости: 0


Вы не можете начинать темы
Вы не можете отвечать на сообщения
Вы не можете редактировать свои сообщения
Вы не можете удалять свои сообщения
Вы не можете добавлять вложения

Перейти:  
cron