Начать новую тему Ответить на тему
Статистика раздачи
Размер: 300.2 МБ | Добавлен: 26 июн 2020, 21:13 | Скачали: 0
Сидеров: 0  [0 байт/сек]    Личеров: 0  [0 байт/сек]
Пред. тема | След. тема 

Автор
Сообщение

СообщениеДобавлено: 26 июн 2020, 21:13 

Ответить с цитатой 

In Strict Confidence - Engelsstaub (Maxi-Single, Enhanced)
Жанр: Electro, Industrial
Год выпуска диска: 2003
Производитель диска: Germany
Аудио кодек: FLAC
Тип рипа: tracks+.cue
Битрейт аудио: lossless
Продолжительность: 32:00
Трэклист:
1 Engelsstaub (Extended ISC Version) (6:18)
2 Engelsstaub (Dkay.com "Electroclash" Remix) (3:58)
3 Brüder (ISC Version) (6:23)
4 Auriez Vous Peur Du Passé? (3:04)
5 Engelsstaub (Stevedragon Mix) (5:07)
6 Kiss Of Death (10:07)
Video Engelsstaub (3:44)
Доп. информация: Label: Minuswelt Musikfabrik
Catalog#: minus 008
Credits: Mastered By - Olaf Wollschläger; Music By, Lyrics By - Dennis Ostermann, Jörg Schelte, Stefan Vesper; Voice [Female] - Nadine Stelzer (tracks: 1, 2, 5)
Notes: LC 12518. "Kiss of death" is part of a live on tape recorded session.
Код:
Exact Audio Copy V0.99 prebeta 4 from 23. January 2008
EAC extraction logfile from 26. January 2009, 7:24
In Strict Confidence / Engelsstaub
Used drive  : TEAC    CD-W540E   Adapter: 3  ID: 0
Read mode               : Secure
Utilize accurate stream : Yes
Defeat audio cache      : Yes
Make use of C2 pointers : No
Read offset correction                      : 686
Overread into Lead-In and Lead-Out          : No
Fill up missing offset samples with silence : Yes
Delete leading and trailing silent blocks   : No
Null samples used in CRC calculations       : Yes
Used interface                              : Installed external ASPI interface
Gap handling                                : Appended to previous track
Used output format              : User Defined Encoder
Selected bitrate                : 1024 kBit/s
Quality                         : High
Add ID3 tag                     : No
Command line compressor         : D:\Programs\Tools\_Exact Audio Copy\FLAC\FLAC.EXE
Additional command line options : -8 -V -T "ARTIST=%a" -T "TITLE=%t" -T "ALBUM=%g" -T "DATE=%y" -T "TRACKNUMBER=%n" -T "GENRE=%m" -T "COMMENT=%e" %s -o %d
TOC of the extracted CD
     Track |   Start  |  Length  | Start sector | End sector
    ---------------------------------------------------------
        1  |  0:00.00 |  6:20.49 |         0    |    28548
        2  |  6:20.49 |  4:01.32 |     28549    |    46655
        3  | 10:22.06 |  6:19.34 |     46656    |    75114
        4  | 16:41.40 |  3:08.12 |     75115    |    89226
        5  | 19:49.52 |  5:10.10 |     89227    |   112486
        6  | 24:59.62 | 10:08.34 |    112487    |   158120
        7  | 37:40.21 |  4:16.70 |    169521    |   188790
Track  1
     Filename G:\EAC Temporare\01 Engelsstaub (Extended ISC Version).wav
     Pre-gap length  0:00:02.00
     Peak level 100.0 %
     Track quality 100.0 %
     Test CRC DC406F25
     Copy CRC DC406F25
     Accurately ripped (confidence 2)  [C2271273]
     Copy OK
Track  2
     Filename G:\EAC Temporare\02 Engelsstaub (Dkay.com ''Electroclash'' Remix).wav
     Pre-gap length  0:00:02.00
     Peak level 100.0 %
     Track quality 99.9 %
     Test CRC 260DDB09
     Copy CRC 260DDB09
     Accurately ripped (confidence 2)  [E4B40BDE]
     Copy OK
Track  3
     Filename G:\EAC Temporare\03 Bruder (ISC Version).wav
     Pre-gap length  0:00:02.00
     Peak level 100.0 %
     Track quality 100.0 %
     Test CRC 2333F9C5
     Copy CRC 2333F9C5
     Accurately ripped (confidence 2)  [FBAF29DB]
     Copy OK
Track  4
     Filename G:\EAC Temporare\04 Auriez Vous Peur Du Passe!.wav
     Pre-gap length  0:00:02.00
     Peak level 100.0 %
     Track quality 100.0 %
     Test CRC 5FFA070E
     Copy CRC 5FFA070E
     Accurately ripped (confidence 2)  [C2242A7C]
     Copy OK
Track  5
     Filename G:\EAC Temporare\05 Engelsstaub (Stevedragon Mix).wav
     Pre-gap length  0:00:02.00
     Peak level 100.0 %
     Track quality 99.9 %
     Test CRC E49EF132
     Copy CRC E49EF132
     Accurately ripped (confidence 2)  [89D734E2]
     Copy OK
Track  6
     Filename G:\EAC Temporare\06 Kiss Of Death.wav
     Pre-gap length  0:00:02.00
     Peak level 100.0 %
     Track quality 100.0 %
     Test CRC 539FFF3D
     Copy CRC 539FFF3D
     Accurately ripped (confidence 2)  [BA2492C1]
     Copy OK
All tracks accurately ripped
No errors occurred
End of status report
Формат: MPG
Видео кодек: MPEG1
Аудио кодек: MPEG-1 Layer 2
Видео: 352 x 288 (11:9); fps 25; 1150 Kbps; 0.454 bpx
Аудио: 44100Hz 224 kb/s tot , Stereo
Зарелизено на rutracker.org

на раздаче ВСЕГДА в нерабочее время (вечер, ночь, выходные), в остальное время как получится
Правила, инструкции, FAQ!!!
Торрент  Добавлен [26 июн 2020, 21:13] Скачать торрент Магнет ссылка
Скачать торрент
[ Размер 13.31 КБ / Просмотров 0 ]

Статус
Проверен 
 
Размер  300.2 МБ
Приватный: Нет (DHT включён)
.torrent скачан  0
 


     Отправить личное сообщение
   
Страница 1 из 1
Показать сообщения за:  Поле сортировки  
Начать новую тему Ответить на тему


Сейчас этот форум просматривают: нет зарегистрированных пользователей и гости: 0


Вы не можете начинать темы
Вы не можете отвечать на сообщения
Вы не можете редактировать свои сообщения
Вы не можете удалять свои сообщения
Вы не можете добавлять вложения

Перейти:  
cron