Начать новую тему Ответить на тему
Статистика раздачи
Размер: 355.13 МБ | Добавлен: 26 июн 2020, 17:50 | Скачали: 0
Сидеров: 0  [0 байт/сек]    Личеров: 0  [0 байт/сек]
Пред. тема | След. тема 

Автор
Сообщение

СообщениеДобавлено: 26 июн 2020, 17:50 

Ответить с цитатой 

Steril - Transmission Pervous
Жанр: Electro, Industrial
Год выпуска диска: 1993
Производитель диска: US
Аудио кодек: FLAC
Тип рипа: image+.cue
Битрейт аудио: lossless
Продолжительность: 57:31 min
Источник: Из собственной коллекции
Трэклист:
1 No Remission (5:02)
2 Caelestis Index (4:59)
3 Timebound (4:20)
4 Distance (6:29)
5 Smell Of Decay (6:17)
6 Crash Your Head (4:18)
7 Tired Of Life (2:40)
8 Pervous (4:28)
9 Drugs (3:41)
10 Virus Perform (3:25)
11 No Remission (Neuter King- Mix) (5:14)
Remix - Swamp Terrorists
12 No Remission (Hound You Dub Mix) (6:31)
Remix - Swamp Terrorists
Код:
Exact Audio Copy V0.99 prebeta 5 from 4. May 2009
EAC extraction logfile from 4. June 2009, 20:31
Steril / Transmission Pervous
Used drive  : _NEC    DVD_RW ND-4551A   Adapter: 1  ID: 0
Read mode               : Secure
Utilize accurate stream : Yes
Defeat audio cache      : Yes
Make use of C2 pointers : No
Read offset correction                      : 48
Overread into Lead-In and Lead-Out          : No
Fill up missing offset samples with silence : Yes
Delete leading and trailing silent blocks   : No
Null samples used in CRC calculations       : Yes
Used interface                              : Installed external ASPI interface
Used output format : Internal WAV Routines
Sample format      : 44.100 Hz; 16 Bit; Stereo
TOC of the extracted CD
     Track |   Start  |  Length  | Start sector | End sector
    ---------------------------------------------------------
        1  |  0:00.00 |  5:02.00 |         0    |    22649
        2  |  5:02.00 |  4:59.28 |     22650    |    45102
        3  | 10:01.28 |  4:20.60 |     45103    |    64662
        4  | 14:22.13 |  6:29.65 |     64663    |    93902
        5  | 20:52.03 |  6:17.45 |     93903    |   122222
        6  | 27:09.48 |  4:18.47 |    122223    |   141619
        7  | 31:28.20 |  2:40.28 |    141620    |   153647
        8  | 34:08.48 |  4:28.52 |    153648    |   173799
        9  | 38:37.25 |  3:41.30 |    173800    |   190404
       10  | 42:18.55 |  3:26.30 |    190405    |   205884
       11  | 45:45.10 |  5:14.50 |    205885    |   229484
       12  | 50:59.60 |  6:31.53 |    229485    |   258862
Range status and errors
Selected range
     Filename C:\My Downloads\Steril - Transmission Pervous\Steril - Transmission Pervous.wav
     Peak level 100.0 %
     Range quality 99.9 %
     Test CRC 968BEB09
     Copy CRC 968BEB09
     Copy OK
No errors occurred
AccurateRip summary
Track  1  cannot be verified as accurate (confidence 2)  [2F7E1082], AccurateRip returned [BEC7B0C2]
Track  2  cannot be verified as accurate (confidence 2)  [8EDD1A5F], AccurateRip returned [8AA5D001]
Track  3  cannot be verified as accurate (confidence 2)  [C05BAA09], AccurateRip returned [65DDB6BA]
Track  4  cannot be verified as accurate (confidence 2)  [74B5B9A9], AccurateRip returned [7C6B1A78]
Track  5  cannot be verified as accurate (confidence 2)  [382C425C], AccurateRip returned [4C4B4DE3]
Track  6  cannot be verified as accurate (confidence 2)  [8DEAA7BD], AccurateRip returned [2DB7FD29]
Track  7  cannot be verified as accurate (confidence 2)  [7969AC31], AccurateRip returned [52B47AD8]
Track  8  cannot be verified as accurate (confidence 2)  [15B8E096], AccurateRip returned [41130B0D]
Track  9  cannot be verified as accurate (confidence 2)  [D6035D4C], AccurateRip returned [94E71D3B]
Track 10  cannot be verified as accurate (confidence 2)  [39DECE65], AccurateRip returned [18F28953]
Track 11  cannot be verified as accurate (confidence 2)  [DA1F3ECE], AccurateRip returned [C3C74219]
Track 12  cannot be verified as accurate (confidence 2)  [1ADCE167], AccurateRip returned [1C686F2E]
No tracks could be verified as accurate
You may have a different pressing from the one(s) in the database
End of status report
AUDIOCHECKER v1.2 - by Dester - opdester@freemail.hu
~~~~~~~~~~~~~~~~~
1 -===- C:\My Downloads\Steril - Transmission Pervous\Steril - Transmission Pervous.flac
Extracted successfully
Conclusion: This track looks like CDDA with probability 100%
Доп. информация:
Издание 21st Circuitry по лицензии Off Beat с двумя дополнительными бонус-ремиксами
Правила, инструкции, FAQ!!!
Торрент  Добавлен [26 июн 2020, 17:50] Скачать торрент Магнет ссылка
Скачать торрент
[ Размер 14.66 КБ / Просмотров 10 ]

Статус
Проверен 
 
Размер  355.13 МБ
Приватный: Нет (DHT включён)
.torrent скачан  0
 


     Отправить личное сообщение
   
Страница 1 из 1
Показать сообщения за:  Поле сортировки  
Начать новую тему Ответить на тему


Сейчас этот форум просматривают: нет зарегистрированных пользователей и гости: 0


Вы не можете начинать темы
Вы не можете отвечать на сообщения
Вы не можете редактировать свои сообщения
Вы не можете удалять свои сообщения
Вы не можете добавлять вложения

Перейти:  
cron