Начать новую тему Ответить на тему
Статистика раздачи
Размер: 424.87 МБ | Добавлен: 26 июн 2020, 17:01 | Скачали: 0
Сидеров: 0  [0 байт/сек]    Личеров: 0  [0 байт/сек]
Пред. тема | След. тема 

Автор
Сообщение

СообщениеДобавлено: 26 июн 2020, 17:01 

Ответить с цитатой 

Standeg / UltraHighTechViolet
Жанр: electro industrial
Страна-производитель диска: Canada
Год издания диска: 2008
Издатель (лейбл): Artoffact Records
Номер по каталогу: AOF062
Аудио кодек: FLAC (*.flac)
Тип рипа: image+.cue
Битрейт аудио: lossless
Продолжительность: 1:06:55.08
Источник (релизер): Физический носитель
Наличие сканов в содержимом раздачи: да
Треклист:
01. Replikant [6:11]
02. Homes & Gardens [3.0] [4:47]
03. Photograph [4:16]
04. 25 Hours [5:25]
05. Further Dose [4:43]
06. Revol|Vex [12:09]
07. Imprint Image [4:29]
08. Retribution [4:20]
09. Vanity [4:41]
10. Easy To Forget [5:47]
11. Teaser|One [3:29]
12. Image In Motion [6:39]
Код:
Exact Audio Copy V0.99 prebeta 5 from 4. May 2009
Отчёт EAC об извлечении, выполненном 22. декабря 2010, 7:48
Standeg / UltraHighTechViolet
Дисковод: Optiarc DVD RW AD-7173A   Adapter: 0  ID: 0
Режим чтения                 : Достоверность
Использование точного потока : Да
Отключение кэша аудио        : Да
Использование указателей C2  : Нет
Коррекция смещения при чтении                     : 48
Способность читать области Lead-in и Lead-out     : Нет
Заполнение пропущенных сэмплов тишиной            : Да
Удаление блоков с тишиной в начале и конце        : Нет
При вычислениях CRC использовались нулевые сэмплы : Да
Интерфейс                                         : Установленный внешний ASPI-интерфейс
Выходной формат          : Пользовательский кодировщик
Выбранный битрейт        : 1024 kBit/s
Качество                 : Высокий
Добавление ID3-тэга      : Нет
Утилита сжатия           : C:\Program Files\Exact Audio Copy\flac.exe
Дополнительные параметры : -6 -V -T "ARTIST=%a" -T "TITLE=%t" -T "ALBUM=%g" -T "DATE=%y" -T "TRACKNUMBER=%n" -T "GENRE=%m" -T "COMMENT=%e" %s -o %d
TOC извлечённого CD
     Трек |   Старт  | Длительность | Начальный сектор | Конечный сектор
    ---------------------------------------------------------------------
       1  |  0:00.00 |    6:11.09   |           0      |      27833
       2  |  6:11.09 |    4:46.55   |       27834      |      49338
       3  | 10:57.64 |    4:16.00   |       49339      |      68538
       4  | 15:13.64 |    5:25.16   |       68539      |      92929
       5  | 20:39.05 |    4:42.40   |       92930      |     114119
       6  | 25:21.45 |   12:08.60   |      114120      |     168779
       7  | 37:30.30 |    4:29.23   |      168780      |     188977
       8  | 41:59.53 |    4:20.31   |      188978      |     208508
       9  | 46:20.09 |    4:40.65   |      208509      |     229573
      10  | 51:00.74 |    5:46.47   |      229574      |     255570
      11  | 56:47.46 |    3:28.62   |      255571      |     271232
      12  | 60:16.33 |    6:38.50   |      271233      |     301132
Характеристики диапазона извлечения и сообщения об ошибках
Выбранный диапазон
     Имя файла H:\СКАЧКА\FLAC\1 TORRENT\Standeg - UltraHighTechViolet.wav
     Пиковый уровень 99.9 %
     Качество диапазона 100.0 %
     CRC теста A538FDA8
     CRC копии A538FDA8
     Копирование... OK
Ошибок не произошло
AccurateRip: сводка
Трек  1  точное извлечение (доверие 5)  [6C46D52E]
Трек  2  точное извлечение (доверие 5)  [0DD72119]
Трек  3  точное извлечение (доверие 5)  [2F73C196]
Трек  4  точное извлечение (доверие 5)  [B76ADD56]
Трек  5  точное извлечение (доверие 5)  [CED1CDC2]
Трек  6  точное извлечение (доверие 5)  [4F03D70A]
Трек  7  точное извлечение (доверие 5)  [9CBD6F7D]
Трек  8  точное извлечение (доверие 5)  [2092619F]
Трек  9  точное извлечение (доверие 5)  [D433BCEB]
Трек 10  точное извлечение (доверие 5)  [FC5AD95A]
Трек 11  точное извлечение (доверие 5)  [FA4EED0B]
Трек 12  точное извлечение (доверие 5)  [C91DFB2A]
Все треки извлечены точно
Конец отчёта
Правила, инструкции, FAQ!!!
Торрент  Добавлен [26 июн 2020, 17:01] Скачать торрент Магнет ссылка
Скачать торрент
[ Размер 17.53 КБ / Просмотров 2 ]

Статус
Проверен 
 
Размер  424.87 МБ
Приватный: Нет (DHT включён)
.torrent скачан  0
 


     Отправить личное сообщение
   
Страница 1 из 1
Показать сообщения за:  Поле сортировки  
Начать новую тему Ответить на тему


Сейчас этот форум просматривают: нет зарегистрированных пользователей и гости: 0


Вы не можете начинать темы
Вы не можете отвечать на сообщения
Вы не можете редактировать свои сообщения
Вы не можете удалять свои сообщения
Вы не можете добавлять вложения

Перейти:  
cron