Начать новую тему Ответить на тему
Статистика раздачи
Размер: 494.45 МБ | Добавлен: 26 июн 2020, 17:24 | Скачали: 0
Сидеров: 0  [0 байт/сек]    Личеров: 0  [0 байт/сек]
Пред. тема | След. тема 

Автор
Сообщение

СообщениеДобавлено: 26 июн 2020, 17:24 

Ответить с цитатой 

Defence Mechanism / Invasion Of The Robot Brains From Planet Zero
Жанр: electro industrial / space synth
Страна-производитель диска: Germany
Год издания диска: 2010
Издатель (лейбл): Danse Macabre
Аудиокодек: FLAC (*.flac)
Тип рипа: image+.cue
Битрейт аудио: lossless
Продолжительность: 1:03:09.61
Источник (релизер): Физический носитель
Наличие сканов в содержимом раздачи: да
Треклист:
01. Dance Ex Machina [5:21]
02. Thebrainsarecoming [0:59]
03. We're Gonna Fade [6:36]
04. Shiny Metal Brains [5:45]
05. The Robots Of Dawn [4:44]
06. Maybe I Won't [5:35]
07. Thediabolicalplansummedupbydoctorsyntax [0:54]
08. Grid Bugs And Tanks [4:57]
09. Metropolis [5:05]
10. Theinfernalgrowthsspawnedfromthejellybeastofarchon-Z-Alpha [1:01]
11. Let's Get Out Of Here! [5:07]
12. Emergergency Population Control [6:26]
13. Last Man On Earth [4:54]
14. Revenge Of The Snake Charmer [5:48]
Код:
Exact Audio Copy V0.99 prebeta 5 from 4. May 2009
Отчёт EAC об извлечении, выполненном 16. января 2012, 11:37
Defence Mechanism / Invasion Of The Robot Brains From Planet Zero
Дисковод: _NEC    DVD_RW ND-3520A   Adapter: 0  ID: 1
Режим чтения                 : Достоверность
Использование точного потока : Да
Отключение кэша аудио        : Да
Использование указателей C2  : Нет
Коррекция смещения при чтении                     : 48
Способность читать области Lead-in и Lead-out     : Нет
Заполнение пропущенных сэмплов тишиной            : Да
Удаление блоков с тишиной в начале и конце        : Нет
При вычислениях CRC использовались нулевые сэмплы : Да
Интерфейс                                         : Установленный внешний ASPI-интерфейс
Выходной формат          : Пользовательский кодировщик
Выбранный битрейт        : 1024 kBit/s
Качество                 : Высокий
Добавление ID3-тэга      : Нет
Утилита сжатия           : C:\Program Files\Exact Audio Copy\flac.exe
Дополнительные параметры : -6 -V -T "ARTIST=%a" -T "TITLE=%t" -T "ALBUM=%g" -T "DATE=%y" -T "TRACKNUMBER=%n" -T "GENRE=%m" -T "COMMENT=%e" %s -o %d
TOC извлечённого CD
     Трек |   Старт  | Длительность | Начальный сектор | Конечный сектор
    ---------------------------------------------------------------------
       1  |  0:00.00 |    5:20.48   |           0      |      24047
       2  |  5:20.48 |    0:58.40   |       24048      |      28437
       3  |  6:19.13 |    6:35.73   |       28438      |      58135
       4  | 12:55.11 |    5:44.61   |       58136      |      83996
       5  | 18:39.72 |    4:43.55   |       83997      |     105276
       6  | 23:23.52 |    5:34.46   |      105277      |     130372
       7  | 28:58.23 |    0:53.66   |      130373      |     134413
       8  | 29:52.14 |    4:57.19   |      134414      |     156707
       9  | 34:49.33 |    5:04.59   |      156708      |     179566
      10  | 39:54.17 |    1:00.67   |      179567      |     184133
      11  | 40:55.09 |    5:07.03   |      184134      |     207161
      12  | 46:02.12 |    6:25.49   |      207162      |     236085
      13  | 52:27.61 |    4:54.26   |      236086      |     258161
      14  | 57:22.12 |    5:47.49   |      258162      |     284235
Характеристики диапазона извлечения и сообщения об ошибках
Выбранный диапазон
     Имя файла O:\На трекер\Defence Mechanism - Invasion Of The Robot Brains From Planet Zero.wav
     Пиковый уровень 100.0 %
     Качество диапазона 100.0 %
     CRC теста D98B18C5
     CRC копии D98B18C5
     Копирование... OK
Ошибок не произошло
AccurateRip: сводка
Трек  1  точное извлечение (доверие 1)  [0E043707]
Трек  2  точное извлечение (доверие 1)  [B8C0C876]
Трек  3  точное извлечение (доверие 1)  [EBFF643F]
Трек  4  точное извлечение (доверие 1)  [6D0D547B]
Трек  5  точное извлечение (доверие 1)  [3F30DCAF]
Трек  6  точное извлечение (доверие 1)  [8D53DA57]
Трек  7  точное извлечение (доверие 1)  [783042AC]
Трек  8  точное извлечение (доверие 1)  [53055516]
Трек  9  точное извлечение (доверие 1)  [A3F8E422]
Трек 10  точное извлечение (доверие 1)  [1BE80B24]
Трек 11  точное извлечение (доверие 1)  [6A35A18E]
Трек 12  точное извлечение (доверие 1)  [50536208]
Трек 13  точное извлечение (доверие 1)  [38351A85]
Трек 14  точное извлечение (доверие 1)  [B35A0A80]
Все треки извлечены точно
Конец отчёта
Правила, инструкции, FAQ!!!
Торрент  Добавлен [26 июн 2020, 17:24] Скачать торрент Магнет ссылка
Скачать торрент
[ Размер 20.46 КБ / Просмотров 6 ]

Статус
Проверен 
 
Размер  494.45 МБ
Приватный: Нет (DHT включён)
.torrent скачан  0
 


     Отправить личное сообщение
   
Страница 1 из 1
Показать сообщения за:  Поле сортировки  
Начать новую тему Ответить на тему


Сейчас этот форум просматривают: нет зарегистрированных пользователей и гости: 0


Вы не можете начинать темы
Вы не можете отвечать на сообщения
Вы не можете редактировать свои сообщения
Вы не можете удалять свои сообщения
Вы не можете добавлять вложения

Перейти:  
cron