Начать новую тему Ответить на тему
Статистика раздачи
Размер: 445.43 МБ | Добавлен: 26 июн 2020, 16:55 | Скачали: 0
Сидеров: 0  [0 байт/сек]    Личеров: 0  [0 байт/сек]
Пред. тема | След. тема 

Автор
Сообщение

СообщениеДобавлено: 26 июн 2020, 16:55 

Ответить с цитатой 

Second Disease - Dogma
Жанр: Electro, Industrial
Год выпуска диска: 2000
Производитель диска: Germany
Аудио кодек: APE
Тип рипа: image+.cue
Битрейт аудио: lossless
Продолжительность: 01:13:25
Трэклист:
01. Angel Of Death 4:31
02. Can't Be Me 3:54
03. Paranoia 4:43
04. Fatal Sucess 4:02
05. Conflict 4:35
06. Wipe It Out 4:38
07. Slave 4:04
08. What Igon? 4:13
09. Observation 4:25
10. Antisocial 4:14
11. Transition 2:01
12. Ever Being Mine 2:33
13. Downcast 3:07
14. Decision 2:53
15. Offence 4:30
16. Braindeath 3:46
17. Relief 4:45
18. Enemy War 2:32
19. Rebirth II 3:50
Код:
Exact Audio Copy V0.99 prebeta 5 from 4. May 2009
Отчёт EAC об извлечении, выполненном 1. ноября 2009, 17:19
Second Disease / Dogma[Ltd 500]
Дисковод: Optiarc DVD RW AD-7201S   Adapter: 2  ID: 1
Режим чтения                 : Достоверность
Использование точного потока : Да
Отключение кэша аудио        : Да
Использование указателей C2  : Нет
Коррекция смещения при чтении                     : 48
Способность читать области Lead-in и Lead-out     : Нет
Заполнение пропущенных сэмплов тишиной            : Да
Удаление блоков с тишиной в начале и конце        : Нет
При вычислениях CRC использовались нулевые сэмплы : Да
Интерфейс                                         : Встроенный Win32-интерфейс для Win NT/2000
Выходной формат : Внутренние WAV-операции
Формат сэмплов  : 44.100 Гц; 16 бит; стерео
TOC извлечённого CD
     Трек |   Старт  | Длительность | Начальный сектор | Конечный сектор
    ---------------------------------------------------------------------
       1  |  0:00.00 |    4:31.18   |           0      |      20342
       2  |  4:31.18 |    3:54.40   |       20343      |      37932
       3  |  8:25.58 |    4:43.58   |       37933      |      59215
       4  | 13:09.41 |    4:02.62   |       59216      |      77427
       5  | 17:12.28 |    4:35.17   |       77428      |      98069
       6  | 21:47.45 |    4:38.32   |       98070      |     118951
       7  | 26:26.02 |    4:04.51   |      118952      |     137302
       8  | 30:30.53 |    4:13.53   |      137303      |     156330
       9  | 34:44.31 |    4:25.39   |      156331      |     176244
      10  | 39:09.70 |    4:14.49   |      176245      |     195343
      11  | 43:24.44 |    2:01.08   |      195344      |     204426
      12  | 45:25.52 |    2:33.00   |      204427      |     215901
      13  | 47:58.52 |    3:07.73   |      215902      |     229999
      14  | 51:06.50 |    2:53.34   |      230000      |     243008
      15  | 54:00.09 |    4:30.33   |      243009      |     263291
      16  | 58:30.42 |    3:46.19   |      263292      |     280260
      17  | 62:16.61 |    4:45.33   |      280261      |     301668
      18  | 67:02.19 |    2:32.14   |      301669      |     313082
      19  | 69:34.33 |    3:50.62   |      313083      |     330394
Характеристики диапазона извлечения и сообщения об ошибках
Выбранный диапазон
     Имя файла E:\Раздачи\Second Disease - Dogma\Second Disease - Dogma[Ltd 500].wav
     Пиковый уровень 100.0 %
     Качество диапазона 100.0 %
     CRC теста 07756C19
     CRC копии 07756C19
     Копирование... OK
Ошибок не произошло
AccurateRip: сводка
Трек  1  нет в базе данных
Трек  2  нет в базе данных
Трек  3  нет в базе данных
Трек  4  нет в базе данных
Трек  5  нет в базе данных
Трек  6  нет в базе данных
Трек  7  нет в базе данных
Трек  8  нет в базе данных
Трек  9  нет в базе данных
Трек 10  нет в базе данных
Трек 11  нет в базе данных
Трек 12  нет в базе данных
Трек 13  нет в базе данных
Трек 14  нет в базе данных
Трек 15  нет в базе данных
Трек 16  нет в базе данных
Трек 17  нет в базе данных
Трек 18  нет в базе данных
Трек 19  нет в базе данных
Ни одного трека нет в базе AccurateRip
Конец отчёта
 
Код:
Started at: воскресенье, 01. 11. 2009. - 17:36.06
1 file found
1 -===- E:\Раздачи\Second Disease - Dogma\Second Disease - Dogma[Ltd 500].ape
  Extracted successfully
  Conclusion: this track is CDDA with probability 100%
  Tempfile successfully deleted.
Finished at: воскресенье, 01. 11. 2009. - 17:45.45 (operation time: 0:09.39)
Label:Maschinenwelt Records
Catalog#:MW 024
Format:CD, Album
Country: Germany
Released:2000
Genre:Electronic
Style:EBM, Electro, Industrial

HQ Scans Full Complete
Правила, инструкции, FAQ!!!
Торрент  Добавлен [26 июн 2020, 16:55] Скачать торрент Магнет ссылка
Скачать торрент
[ Размер 18.17 КБ / Просмотров 5 ]

Статус
Проверен 
 
Размер  445.43 МБ
Приватный: Нет (DHT включён)
.torrent скачан  0
 


     Отправить личное сообщение
   
Страница 1 из 1
Показать сообщения за:  Поле сортировки  
Начать новую тему Ответить на тему


Сейчас этот форум просматривают: нет зарегистрированных пользователей и гости: 0


Вы не можете начинать темы
Вы не можете отвечать на сообщения
Вы не можете редактировать свои сообщения
Вы не можете удалять свои сообщения
Вы не можете добавлять вложения

Перейти:  
cron