Начать новую тему Ответить на тему
Статистика раздачи
Размер: 348.05 МБ | Добавлен: 26 июн 2020, 18:00 | Скачали: 0
Сидеров: 0  [0 байт/сек]    Личеров: 0  [0 байт/сек]
Пред. тема | След. тема 

Автор
Сообщение

СообщениеДобавлено: 26 июн 2020, 18:00 

Ответить с цитатой 

Recently Deceased / Coemeteria
Жанр: (Electro, Industrial)
Страна-производитель диска: Russia
Год издания диска: 2005
Издатель (лейбл): Not On Label
Страна: Russia
Аудио кодек: FLAC (*.flac)
Тип рипа: image+.cue
Битрейт аудио: lossless
Продолжительность: 47:12
Источник (релизер): собственный диск
Наличие сканов в содержимом раздачи: да
Треклист:
01. We Come To Die [0:04:50.29]
02. Hybridize [0:01:57.38]
03. Dance With Death [0:04:35.82]
04. The Story [0:04:30.38]
05. Fear [0:05:39.24]
06. Elvis Is Dead [0:02:01.93]
07. Requiem (remix for Project Pitchfork) [0:03:51.30]
08. The Bomb [0:07:34.46]
09. We Come To Die (acoustic version) [0:03:41.56]
10. We Come To Die v.2.0 [0:04:00.02]
11. The Story (instrumental) [0:04:30.33]
Код:
Exact Audio Copy V0.99 prebeta 5 from 4. May 2009
Отчёт EAC об извлечении, выполненном 20. февраля 2010, 14:14
Recently Deceased / Coemeteria
Дисковод: ATAPI   iHAS124   Y   Adapter: 1  ID: 1
Режим чтения                 : Достоверность
Использование точного потока : Да
Отключение кэша аудио        : Да
Использование указателей C2  : Нет
Коррекция смещения при чтении                     : 48
Способность читать области Lead-in и Lead-out     : Нет
Заполнение пропущенных сэмплов тишиной            : Да
Удаление блоков с тишиной в начале и конце        : Нет
При вычислениях CRC использовались нулевые сэмплы : Да
Интерфейс                                         : Встроенный Win32-интерфейс для Win NT/2000
Выходной формат : Внутренние WAV-операции
Формат сэмплов  : 44.100 Гц; 16 бит; стерео
TOC извлечённого CD
     Трек |   Старт  | Длительность | Начальный сектор | Конечный сектор
    ---------------------------------------------------------------------
       1  |  0:00.00 |    4:50.22   |           0      |      21771
       2  |  4:50.22 |    1:57.29   |       21772      |      30575
       3  |  6:47.51 |    4:35.62   |       30576      |      51262
       4  | 11:23.38 |    4:30.29   |       51263      |      71541
       5  | 15:53.67 |    5:39.18   |       71542      |      96984
       6  | 21:33.10 |    2:01.70   |       96985      |     106129
       7  | 23:35.05 |    3:51.23   |      106130      |     123477
       8  | 27:26.28 |    7:34.35   |      123478      |     157562
       9  | 35:00.63 |    3:41.42   |      157563      |     174179
      10  | 38:42.30 |    4:00.02   |      174180      |     192181
      11  | 42:42.32 |    4:30.25   |      192182      |     212456
Характеристики диапазона извлечения и сообщения об ошибках
Выбранный диапазон
     Имя файла E:\! РАЗДАЧИ\Recently Deceased - Coemeteria\Recently Deceased - Coemeteria.wav
     Пиковый уровень 100.0 %
     Качество диапазона 100.0 %
     CRC теста 8350E7BB
     CRC копии 8350E7BB
     Копирование... OK
Ошибок не произошло
AccurateRip: сводка
Трек  1  нет в базе данных
Трек  2  нет в базе данных
Трек  3  нет в базе данных
Трек  4  нет в базе данных
Трек  5  нет в базе данных
Трек  6  нет в базе данных
Трек  7  нет в базе данных
Трек  8  нет в базе данных
Трек  9  нет в базе данных
Трек 10  нет в базе данных
Трек 11  нет в базе данных
Ни одного трека нет в базе AccurateRip
Конец отчёта
RECENTLY DECEASED - продукт извращенной фантазии двух творческих индивидуумов нашего индустриального мира. Ожившие картины ужаса, феерии и индастриала, которым позавидовал бы и Silent Hill, вот так безотказна работающая формула воздействия на мозг аудитории, которая посещает концерты этой группы. Концертное шоу RECENTLY DECEASED - мощная атаку самыми жёсткими треками из репертуара коллектива, приправленную концептуальным видеорядом и конвульсивно-эстетическим экспрессионизмом.
Именно RECENTLY DECEASED принадлежит заслуга завоевания западного индустриального рынка. Релизом, пробившим эту стену стал дебютный альбом дуэта "Barren Inc.", увидевший свет в апреле 2006-го года. Группа довольно известна на андерграундном электронном поприще и как ремиксмэйкер.
(c) SYN Promotion
All music by Stefan Leibher
All vocals and lyrics by Wolfgang Nett except on Dance with Death, WCTD (a.v.) vocal by Stefan Leibher
именно с этой ипишки Стасы начали победоносное шествие своим творческим потенциалом по ушам слушателей и издателей
Real Name:
Stanislav Maksimenko, Stanislav Zak
Profile:
The industrial/EBM project Recently Deceased was conceived in Omsk (Russia).
Правила, инструкции, FAQ!!!
Торрент  Добавлен [26 июн 2020, 18:00] Скачать торрент Магнет ссылка
Скачать торрент
[ Размер 28.17 КБ / Просмотров 6 ]

Статус
Проверен 
 
Размер  348.05 МБ
Приватный: Нет (DHT включён)
.torrent скачан  0
 


     Отправить личное сообщение
   
Страница 1 из 1
Показать сообщения за:  Поле сортировки  
Начать новую тему Ответить на тему


Сейчас этот форум просматривают: нет зарегистрированных пользователей и гости: 0


Вы не можете начинать темы
Вы не можете отвечать на сообщения
Вы не можете редактировать свои сообщения
Вы не можете удалять свои сообщения
Вы не можете добавлять вложения

Перейти:  
cron