Начать новую тему Ответить на тему
Статистика раздачи
Размер: 368.34 МБ | Добавлен: 26 июн 2020, 20:13 | Скачали: 0
Сидеров: 1  [0 байт/сек]    Личеров: 0  [0 байт/сек]
Пред. тема | След. тема 

Автор
Сообщение

СообщениеДобавлено: 26 июн 2020, 20:13 

Ответить с цитатой 

Project Pitchfork - Wonderland / One Million Faces [EP]
Год выпуска диска: 2007
Производитель диска: Germany
Аудио кодек: FLAC
Тип рипа: image+.cue
Битрейт аудио: lossless
Продолжительность: 00:48:00
Label:Candyland Entertainment
Catalog#:none
Format:CD, EP
Country:Germany
Released:01 May 2007
Genre:Electronic
Style:Electro, Industrial

Трэклист:
Wonderland
1. Ouverture 11:24
2. Wonderland 6:25
3. Résumé 7:10
One Million Faces
4. Research 7:59
5. Consequence 7:29
6. One Million Faces 8:39
Код:
Exact Audio Copy V0.99 prebeta 5 from 4. May 2009
Отчёт EAC об извлечении, выполненном 25. февраля 2010, 20:48
Project Pitchfork / Wonderland / One Million Faces
Дисковод: Optiarc DVD RW AD-7201S   Adapter: 2  ID: 1
Режим чтения                 : Достоверность
Использование точного потока : Да
Отключение кэша аудио        : Да
Использование указателей C2  : Нет
Коррекция смещения при чтении                     : 48
Способность читать области Lead-in и Lead-out     : Нет
Заполнение пропущенных сэмплов тишиной            : Да
Удаление блоков с тишиной в начале и конце        : Нет
При вычислениях CRC использовались нулевые сэмплы : Да
Интерфейс                                         : Встроенный Win32-интерфейс для Win
NT/2000
Выходной формат : Внутренние WAV-операции
Формат сэмплов  : 44.100 Гц; 16 бит; стерео
TOC извлечённого CD
     Трек |   Старт  | Длительность | Начальный сектор | Конечный сектор
    ---------------------------------------------------------------------
       1  |  0:00.00 |   11:24.49   |           0      |      51348
       2  | 11:24.49 |    6:25.00   |       51349      |      80223
       3  | 17:49.49 |    7:17.62   |       80224      |     113060
       4  | 25:07.36 |    6:44.49   |      113061      |     143409
       5  | 31:52.10 |    7:29.31   |      143410      |     177115
       6  | 39:21.41 |    8:39.09   |      177116      |     216049
Характеристики диапазона извлечения и сообщения об ошибках
Выбранный диапазон
     Имя файла D:\Раздачи\Project Pitchfork - Wonderland . One Million Faces\Project
Pitchfork - Wonderland   One Million Faces.wav
     Пиковый уровень 100.0 %
     Качество диапазона 99.9 %
     CRC теста 1A9B7F85
     CRC копии 1A9B7F85
     Копирование... OK
Ошибок не произошло
Конец отчёта
Код:
Started at: четверг, 25. 02. 2010. - 21:43.16
1 file found
1 -===- D:\Раздачи\Project Pitchfork - Wonderland . One Million Faces\Project Pitchfork - Wonderland   One Million Faces.flac
  Extracted successfully
  Conclusion: this track is CDDA with probability 99%
  Tempfile successfully deleted.
Finished at: четверг, 25. 02. 2010. - 21:48.39 (operation time: 0:05.23)
Правила, инструкции, FAQ!!!
Торрент  Добавлен [26 июн 2020, 20:13] Скачать торрент Магнет ссылка
Скачать торрент
[ Размер 15.28 КБ / Просмотров 7 ]

Статус
Проверен 
 
Размер  368.34 МБ
Приватный: Нет (DHT включён)
.torrent скачан  0
 


     Отправить личное сообщение
   
Страница 1 из 1
Показать сообщения за:  Поле сортировки  
Начать новую тему Ответить на тему


Сейчас этот форум просматривают: нет зарегистрированных пользователей и гости: 0


Вы не можете начинать темы
Вы не можете отвечать на сообщения
Вы не можете редактировать свои сообщения
Вы не можете удалять свои сообщения
Вы не можете добавлять вложения

Перейти:  
cron