Начать новую тему Ответить на тему
Статистика раздачи
Размер: 725.75 МБ | Добавлен: 26 июн 2020, 20:13 | Скачали: 0
Сидеров: 0  [0 байт/сек]    Личеров: 0  [0 байт/сек]
Пред. тема | След. тема 

Автор
Сообщение

СообщениеДобавлено: 26 июн 2020, 20:13 

Ответить с цитатой 

Project Pitchfork - IO

Жанр: Electro, Industrial
Носитель: CD
Страна-производитель диска: Germany
Год издания: 1994
Издатель (лейбл): Off Beat
Номер по каталогу: SPV 084-22022
Страна: Germany
Аудиокодек: FLAC (*.flac)
Тип рипа: image+.cue
Битрейт аудио: lossless
Продолжительность: 01:00:54
Источник (релизер): Собственный рип
Наличие сканов в содержимом раздачи: да, PNG 600dpi
Треклист
01. IO [06:03]
02. The Gate [05:47]
03. The Silverthread [06:13]
04. Carrion [05:45]
05. The Seeker [05:36]
06. The Swamp Of Secrecy [06:03]
07. Terra Incognita [05:23]
08. Renascence [05:47]
09. Antidote [05:05]
10. Equilibrium [05:22]
11. Conclusion [03:45]
Код:
Exact Audio Copy V1.0 beta 3 from 29. August 2011
Отчёт EAC об извлечении, выполненном 4. апреля 2014, 18:44
Project Pitchfork / IO (SPV 084-22022)
Дисковод: PIONEER BD-RW   BDR-206   Adapter: 0  ID: 0
Режим чтения                 : Достоверность
Использование точного потока : Да
Отключение кэша аудио        : Да
Использование указателей C2  : Нет
Коррекция смещения при чтении                     : 667
Способность читать области Lead-in и Lead-out     : Нет
Заполнение пропущенных сэмплов тишиной            : Да
Удаление блоков с тишиной в начале и конце        : Нет
При вычислениях CRC использовались нулевые сэмплы : Да
Интерфейс                                         : Встроенный Win32-интерфейс для Win NT/2000
Выходной формат          : Пользовательский кодировщик
Выбранный битрейт        : 1024 kBit/s
Качество                 : Высокий
Добавление ID3-тега      : Нет
Утилита сжатия           : C:\Program Files (x86)\Exact Audio Copy\FLAC\FLAC.EXE
Дополнительные параметры : -T "COMMENT=Ripped by SergeyJD"-8 -V -T "ARTIST=%artist%" -T "TITLE=%title%" -T "ALBUM=%albumtitle%" -T "DATE=%year%" -T "TRACKNUMBER=%tracknr%" -T "GENRE=%genre%" -T "COMMENT=%comment%" -T "BAND=%albuminterpret%" -T "ALBUMARTIST=%albuminterpret%" -T "COMPOSER=%composer%" %haslyrics%--tag-from-file=LYRICS="%lyricsfile%"%haslyrics% -T "DISCNUMBER=%cdnumber%" -T "TOTALDISCS=%totalcds%" -T "TOTALTRACKS=%numtracks%" %hascover%--picture="%coverfile%"%hascover% %source% -o %dest%
TOC извлечённого CD
     Трек |   Старт  | Длительность | Начальный сектор | Конечный сектор
    ---------------------------------------------------------------------
       1  |  0:00.00 |    6:03.62   |           0      |      27286
       2  |  6:03.62 |    5:47.63   |       27287      |      53374
       3  | 11:51.50 |    6:14.00   |       53375      |      81424
       4  | 18:05.50 |    5:45.50   |       81425      |     107349
       5  | 23:51.25 |    5:36.12   |      107350      |     132561
       6  | 29:27.37 |    6:03.38   |      132562      |     159824
       7  | 35:31.00 |    5:23.25   |      159825      |     184074
       8  | 40:54.25 |    5:47.50   |      184075      |     210149
       9  | 46:42.00 |    5:05.50   |      210150      |     233074
      10  | 51:47.50 |    5:22.25   |      233075      |     257249
      11  | 57:10.00 |    3:45.00   |      257250      |     274124
Характеристики диапазона извлечения и сообщения об ошибках
Выбранный диапазон
     Имя файла D:\РАЗДАЧИ!!!!\Project Pitchfork - IO (SPV 084-22022) - 1994\Project Pitchfork - IO (SPV 084-22022).wav
     Пиковый уровень 100.0 %
     Скорость извлечения 7.9 X
     Качество диапазона 99.9 %
     CRC теста 04EEA1A7
     CRC копии 04EEA1A7
     Копирование... OK
Ошибок не произошло
AccurateRip: сводка
Трек  1  : извлечено точно (доверие 4)  [1B3BE2EA]  (AR v2)
Трек  2  : извлечено точно (доверие 4)  [0461FA1C]  (AR v2)
Трек  3  : извлечено точно (доверие 4)  [EE9945CD]  (AR v2)
Трек  4  : извлечено точно (доверие 4)  [6DE34888]  (AR v2)
Трек  5  : извлечено точно (доверие 4)  [3F586966]  (AR v2)
Трек  6  : извлечено точно (доверие 4)  [678778DF]  (AR v2)
Трек  7  : извлечено точно (доверие 4)  [A4A6A6B2]  (AR v2)
Трек  8  : извлечено точно (доверие 4)  [48F6785C]  (AR v2)
Трек  9  : извлечено точно (доверие 4)  [CEF8A46A]  (AR v2)
Трек 10  : извлечено точно (доверие 4)  [8F26281C]  (AR v2)
Трек 11  : извлечено точно (доверие 4)  [9B4820D7]  (AR v2)
Все треки извлечены точно
Конец отчёта
==== Контрольная сумма отчёта 9E889286B86C31B65532926C2DB820575ABE6104CDD33F79A451C08CBC2CC3CE ====
Код:
REM GENRE "Electro, Industrial"
REM DATE 1994
REM DISCID 8E0E470B
REM COMMENT "ExactAudioCopy v1.0b3"
PERFORMER "Project Pitchfork"
TITLE "IO (SPV 084-22022)"
FILE "Project Pitchfork - IO (SPV 084-22022).flac" WAVE
  TRACK 01 AUDIO
    TITLE "IO"
    PERFORMER "Project Pitchfork"
    INDEX 01 00:00:00
    INDEX 02 05:37:23
  TRACK 02 AUDIO
    TITLE "The Gate"
    PERFORMER "Project Pitchfork"
    INDEX 00 06:03:60
    INDEX 01 06:03:62
    INDEX 02 11:26:73
  TRACK 03 AUDIO
    TITLE "The Silverthread"
    PERFORMER "Project Pitchfork"
    INDEX 00 11:51:48
    INDEX 01 11:51:50
    INDEX 02 17:32:48
  TRACK 04 AUDIO
    TITLE "Carrion"
    PERFORMER "Project Pitchfork"
    INDEX 00 18:05:49
    INDEX 01 18:05:50
    INDEX 02 23:43:11
  TRACK 05 AUDIO
    TITLE "The Seeker"
    PERFORMER "Project Pitchfork"
    INDEX 00 23:51:24
    INDEX 01 23:51:25
    INDEX 02 29:01:35
  TRACK 06 AUDIO
    TITLE "The Swamp Of Secrecy"
    PERFORMER "Project Pitchfork"
    INDEX 00 29:27:36
    INDEX 01 29:27:37
    INDEX 02 34:19:53
  TRACK 07 AUDIO
    TITLE "Terra Incognita"
    PERFORMER "Project Pitchfork"
    INDEX 00 35:30:73
    INDEX 01 35:31:00
    INDEX 02 40:33:37
  TRACK 08 AUDIO
    TITLE "Renascence"
    PERFORMER "Project Pitchfork"
    INDEX 00 40:54:24
    INDEX 01 40:54:25
    INDEX 02 46:20:41
  TRACK 09 AUDIO
    TITLE "Antidote"
    PERFORMER "Project Pitchfork"
    INDEX 00 46:41:73
    INDEX 01 46:42:00
    INDEX 02 51:33:73
  TRACK 10 AUDIO
    TITLE "Equilibrium"
    PERFORMER "Project Pitchfork"
    INDEX 00 51:47:48
    INDEX 01 51:47:50
    INDEX 02 56:42:37
  TRACK 11 AUDIO
    TITLE "Conclusion"
    PERFORMER "Project Pitchfork"
    INDEX 00 57:09:74
    INDEX 01 57:10:00
Код:
-----------------------
DON'T MODIFY THIS FILE
-----------------------
PERFORMER: auCDtect Task Manager, ver. 1.5.1RC6 build 1.5.1.7
Copyright (c) 2008-2010 y-soft. All rights reserved
[url=http://y-soft.org]http://y-soft.org[/url]
ANALYZER: auCDtect: CD records authenticity detector, version 0.8.2
Copyright (c) 2004 Oleg Berngardt. All rights reserved.
Copyright (c) 2004 Alexander Djourik. All rights reserved.
FILE: Project Pitchfork - IO (SPV 084-22022).flac
  Size: 406855309 Hash: 0C83B1FCD96B4D29720917ADA8291106 Accuracy: -m0
  Conclusion: CDDA 100%
  Signature: 163CF132AB3E0F46670C67F1A8D280733D5A12AE
После такого большого количества рецензий на релизы Project Pitchfork я уже не нахожу слов похвалить этот альбом за 1994 год. Смело можно утверждать, что этот одно из лучших их творений. За исключением разве что пары треков это отличная грандиозная поп-индустриальная музыка, как всегда простая, но удивительно мелодичная, с неким налетом готики, что придает ей особенный шарм.

Правила, инструкции, FAQ!!!
Торрент  Добавлен [26 июн 2020, 20:13] Скачать торрент Магнет ссылка
Скачать торрент
[ Размер 15.52 КБ / Просмотров 8 ]

Статус
Проверен 
 
Размер  725.75 МБ
Приватный: Нет (DHT включён)
.torrent скачан  0
 


     Отправить личное сообщение
   
Страница 1 из 1
Показать сообщения за:  Поле сортировки  
Начать новую тему Ответить на тему


Сейчас этот форум просматривают: нет зарегистрированных пользователей и гости: 0


Вы не можете начинать темы
Вы не можете отвечать на сообщения
Вы не можете редактировать свои сообщения
Вы не можете удалять свои сообщения
Вы не можете добавлять вложения

Перейти:  
cron