Начать новую тему Ответить на тему
Статистика раздачи
Размер: 530.14 МБ | Добавлен: 26 июн 2020, 17:56 | Скачали: 0
Сидеров: 0  [0 байт/сек]    Личеров: 0  [0 байт/сек]
Пред. тема | След. тема 

Автор
Сообщение

СообщениеДобавлено: 26 июн 2020, 17:56 

Ответить с цитатой 

Project Pitchfork / Live 2003/2001
Жанр: Electro / Industrial
Страна-производитель диска: Germany
Год издания диска: 2003
Издатель (лейбл): WEA (Warner Elektra Atlantic)
Номер по каталогу: 5050466-9616-2-4
Страна: Germany
Аудиокодек: FLAC (*.flac)
Тип рипа: tracks+.cue
Битрейт аудио: lossless
Продолжительность: 01:07:12
Источник (релизер): диск из личной коллекции
Наличие сканов в содержимом раздачи: да
Треклист:
1. Timekiller [05:00]
2. God Wrote [04:57]
3. Trialog [05:29]
4. Inferno [04:52]
5. Awakening [05:21]
6. Terra Incognita [05:22]
7. The Spoken Mirror [04:49]
8. Entity [06:57]
9. IO [04:46]
10. I Live Your Dream [04:30]
11. Die Schlange [03:41]
12. Existence [05:13]
13. K.N.K.A. [06:15]
Код:
Exact Audio Copy V1.0 beta 1 from 15. November 2010
EAC extraction logfile from 10. September 2011, 10:16
Project Pitchfork / Live 2003/2001
Used drive  : SONY    DVD-ROM DDU1622   Adapter: 0  ID: 1
Read mode               : Secure
Utilize accurate stream : Yes
Defeat audio cache      : Yes
Make use of C2 pointers : No
Read offset correction                      : 12
Overread into Lead-In and Lead-Out          : No
Fill up missing offset samples with silence : Yes
Delete leading and trailing silent blocks   : No
Null samples used in CRC calculations       : Yes
Used interface                              : Installed external ASPI interface
Gap handling                                : Appended to previous track
Used output format : Internal WAV Routines
Sample format      : 44.100 Hz; 16 Bit; Stereo
TOC of the extracted CD
     Track |   Start  |  Length  | Start sector | End sector
    ---------------------------------------------------------
        1  |  0:00.00 |  5:00.13 |         0    |    22512
        2  |  5:00.13 |  4:56.73 |     22513    |    44785
        3  |  9:57.11 |  5:28.40 |     44786    |    69425
        4  | 15:25.51 |  4:51.50 |     69426    |    91300
        5  | 20:17.26 |  5:21.29 |     91301    |   115404
        6  | 25:38.55 |  5:21.71 |    115405    |   139550
        7  | 31:00.51 |  4:48.42 |    139551    |   161192
        8  | 35:49.18 |  6:57.28 |    161193    |   192495
        9  | 42:46.46 |  4:46.33 |    192496    |   213978
       10  | 47:33.04 |  4:30.16 |    213979    |   234244
       11  | 52:03.20 |  3:41.20 |    234245    |   250839
       12  | 55:44.40 |  5:12.63 |    250840    |   274302
       13  | 60:57.28 |  6:14.66 |    274303    |   302418
       14  | 69:44.19 | 10:08.56 |    313819    |   359474
Track  1
     Filename D:\01 Project Pitchfork - Timekiller.wav
     Pre-gap length  0:00:02.00
     Peak level 100.0 %
     Extraction speed 2.9 X
     Track quality 99.9 %
     Test CRC 52A19B66
     Copy CRC 52A19B66
     Track not present in AccurateRip database
     Copy OK
Track  2
     Filename D:\02 Project Pitchfork - God Wrote.wav
     Peak level 100.0 %
     Extraction speed 3.2 X
     Track quality 99.9 %
     Test CRC 662EDCC9
     Copy CRC 662EDCC9
     Track not present in AccurateRip database
     Copy OK
Track  3
     Filename D:\03 Project Pitchfork - Trialog.wav
     Peak level 100.0 %
     Extraction speed 4.0 X
     Track quality 100.0 %
     Test CRC F362B343
     Copy CRC F362B343
     Track not present in AccurateRip database
     Copy OK
Track  4
     Filename D:\04 Project Pitchfork - Inferno.wav
     Peak level 100.0 %
     Extraction speed 3.4 X
     Track quality 99.9 %
     Test CRC 2017D3A8
     Copy CRC 2017D3A8
     Track not present in AccurateRip database
     Copy OK
Track  5
     Filename D:\05 Project Pitchfork - Awakening.wav
     Peak level 99.7 %
     Extraction speed 4.1 X
     Track quality 99.9 %
     Test CRC E76E58EC
     Copy CRC E76E58EC
     Track not present in AccurateRip database
     Copy OK
Track  6
     Filename D:\06 Project Pitchfork - Terra Incognita.wav
     Peak level 100.0 %
     Extraction speed 3.9 X
     Track quality 99.9 %
     Test CRC 926B93A3
     Copy CRC 926B93A3
     Track not present in AccurateRip database
     Copy OK
Track  7
     Filename D:\07 Project Pitchfork - The Spoken Mirror.wav
     Peak level 99.9 %
     Extraction speed 4.5 X
     Track quality 99.9 %
     Test CRC 60F8408F
     Copy CRC 60F8408F
     Track not present in AccurateRip database
     Copy OK
Track  8
     Filename D:\08 Project Pitchfork - Entity.wav
     Pre-gap length  0:00:01.18
     Peak level 100.0 %
     Extraction speed 5.5 X
     Track quality 100.0 %
     Test CRC B816A666
     Copy CRC B816A666
     Track not present in AccurateRip database
     Copy OK
Track  9
     Filename D:\09 Project Pitchfork - IO.wav
     Peak level 100.0 %
     Extraction speed 4.9 X
     Track quality 99.9 %
     Test CRC 7C0AD875
     Copy CRC 7C0AD875
     Track not present in AccurateRip database
     Copy OK
Track 10
     Filename D:\10 Project Pitchfork - I Live Your Dream.wav
     Pre-gap length  0:00:01.24
     Peak level 100.0 %
     Extraction speed 5.7 X
     Track quality 100.0 %
     Test CRC 79A4E3CA
     Copy CRC 79A4E3CA
     Track not present in AccurateRip database
     Copy OK
Track 11
     Filename D:\11 Project Pitchfork - Die Schlange.wav
     Peak level 100.0 %
     Extraction speed 5.7 X
     Track quality 100.0 %
     Test CRC 93FE9333
     Copy CRC 93FE9333
     Track not present in AccurateRip database
     Copy OK
Track 12
     Filename D:\12 Project Pitchfork - Existence.wav
     Peak level 100.0 %
     Extraction speed 6.1 X
     Track quality 100.0 %
     Test CRC 5C244A37
     Copy CRC 5C244A37
     Track not present in AccurateRip database
     Copy OK
Track 13
     Filename D:\13 Project Pitchfork - K.N.K.A..wav
     Peak level 100.0 %
     Extraction speed 5.0 X
     Track quality 99.9 %
     Test CRC B29BA1FF
     Copy CRC B29BA1FF
     Track not present in AccurateRip database
     Copy OK
None of the tracks are present in the AccurateRip database
No errors occurred
End of status report
==== Log checksum 8435A24298E22FBC07A58F2204C7AE3C4E664AE09A670EE1C0B93C27CCB134EA ====
Код:
REM GENRE Industrial
REM DATE 2003
REM DISCID CF12B90E
REM COMMENT "ExactAudioCopy v1.0b1"
PERFORMER "Project Pitchfork"
TITLE "Live 2003/2001"
FILE "01 Project Pitchfork - Timekiller.wav" WAVE
  TRACK 01 AUDIO
    TITLE "Timekiller"
    PERFORMER "Project Pitchfork"
    INDEX 01 00:00:00
FILE "02 Project Pitchfork - God Wrote.wav" WAVE
  TRACK 02 AUDIO
    TITLE "God Wrote"
    PERFORMER "Project Pitchfork"
    INDEX 01 00:00:00
FILE "03 Project Pitchfork - Trialog.wav" WAVE
  TRACK 03 AUDIO
    TITLE "Trialog"
    PERFORMER "Project Pitchfork"
    INDEX 01 00:00:00
FILE "04 Project Pitchfork - Inferno.wav" WAVE
  TRACK 04 AUDIO
    TITLE "Inferno"
    PERFORMER "Project Pitchfork"
    INDEX 01 00:00:00
FILE "05 Project Pitchfork - Awakening.wav" WAVE
  TRACK 05 AUDIO
    TITLE "Awakening"
    PERFORMER "Project Pitchfork"
    INDEX 01 00:00:00
FILE "06 Project Pitchfork - Terra Incognita.wav" WAVE
  TRACK 06 AUDIO
    TITLE "Terra Incognita"
    PERFORMER "Project Pitchfork"
    INDEX 01 00:00:00
FILE "07 Project Pitchfork - The Spoken Mirror.wav" WAVE
  TRACK 07 AUDIO
    TITLE "The Spoken Mirror"
    PERFORMER "Project Pitchfork"
    INDEX 01 00:00:00
  TRACK 08 AUDIO
    TITLE "Entity"
    PERFORMER "Project Pitchfork"
    INDEX 00 04:47:24
FILE "08 Project Pitchfork - Entity.wav" WAVE
    INDEX 01 00:00:00
FILE "09 Project Pitchfork - IO.wav" WAVE
  TRACK 09 AUDIO
    TITLE "IO"
    PERFORMER "Project Pitchfork"
    INDEX 01 00:00:00
  TRACK 10 AUDIO
    TITLE "I Live Your Dream"
    PERFORMER "Project Pitchfork"
    INDEX 00 04:45:09
FILE "10 Project Pitchfork - I Live Your Dream.wav" WAVE
    INDEX 01 00:00:00
FILE "11 Project Pitchfork - Die Schlange.wav" WAVE
  TRACK 11 AUDIO
    TITLE "Die Schlange"
    PERFORMER "Project Pitchfork"
    INDEX 01 00:00:00
FILE "12 Project Pitchfork - Existence.wav" WAVE
  TRACK 12 AUDIO
    TITLE "Existence"
    PERFORMER "Project Pitchfork"
    INDEX 01 00:00:00
FILE "13 Project Pitchfork - K.N.K.A..wav" WAVE
  TRACK 13 AUDIO
    TITLE "K.N.K.A."
    PERFORMER "Project Pitchfork"
    INDEX 01 00:00:00
  TRACK 14 MODEx/2xxx
    TITLE "Daten-CD"
    PERFORMER "Project Pitchfork"
    INDEX 00 06:14:66
Код:
AUDIOCHECKER v2.0 beta (build 457) - by Dester - opdester@freemail.hu
~~~~~~~~~~~~~~~~~~~~~~~~~~~~~~~~~~
-=== DO NOT EDIT THIS FILE! ===-
Path: ...\Project Pitchfork (2003) - Live 2003-2001
01 -=- 01 Project Pitchfork - Timekiller.flac -=- CDDA (100%)
02 -=- 02 Project Pitchfork - God Wrote.flac -=- CDDA (100%)
03 -=- 03 Project Pitchfork - Trialog.flac -=- CDDA (100%)
04 -=- 04 Project Pitchfork - Inferno.flac -=- CDDA (99%)
05 -=- 05 Project Pitchfork - Awakening.flac -=- CDDA (99%)
06 -=- 06 Project Pitchfork - Terra Incognita.flac -=- CDDA (99%)
07 -=- 07 Project Pitchfork - The Spoken Mirror.flac -=- CDDA (100%)
08 -=- 08 Project Pitchfork - Entity.flac -=- CDDA (100%)
09 -=- 09 Project Pitchfork - IO.flac -=- CDDA (99%)
10 -=- 10 Project Pitchfork - I Live Your Dream.flac -=- CDDA (99%)
11 -=- 11 Project Pitchfork - Die Schlange.flac -=- CDDA (100%)
12 -=- 12 Project Pitchfork - Existence.flac -=- CDDA (99%)
13 -=- 13 Project Pitchfork - K.N.K.A..flac -=- CDDA (100%)
Summary 99,54% CDDA
187394708
Правила, инструкции, FAQ!!!
Торрент  Добавлен [26 июн 2020, 17:56] Скачать торрент Магнет ссылка
Скачать торрент
[ Размер 12.35 КБ / Просмотров 9 ]

Статус
Проверен 
 
Размер  530.14 МБ
Приватный: Нет (DHT включён)
.torrent скачан  0
 


     Отправить личное сообщение
   
Страница 1 из 1
Показать сообщения за:  Поле сортировки  
Начать новую тему Ответить на тему


Сейчас этот форум просматривают: нет зарегистрированных пользователей и гости: 0


Вы не можете начинать темы
Вы не можете отвечать на сообщения
Вы не можете редактировать свои сообщения
Вы не можете удалять свои сообщения
Вы не можете добавлять вложения

Перейти:  
cron