Начать новую тему Ответить на тему
Статистика раздачи
Размер: 291.93 МБ | Добавлен: 26 июн 2020, 17:39 | Скачали: 0
Сидеров: 0  [0 байт/сек]    Личеров: 0  [0 байт/сек]
Пред. тема | След. тема 

Автор
Сообщение

СообщениеДобавлено: 26 июн 2020, 17:39 

Ответить с цитатой 

Project Pitchfork - Dhyani
Жанр: Electro, Industrial
Год выпуска диска: 1994
Производитель диска: Germany
Аудио кодек: FLAC
Тип рипа: tracks
Битрейт аудио: lossless
Трэклист:
1 Lost Youth Of A Prisoner (4:16)
2 Fire And Ice (4:06)
3 Inside (4:02)
4 Doom (4:04)
5 Box Of Steel (4:58)
6 K.N.K.A. (4:12)
7 Vietnam (6:03)
8 Message (6:07)
9 In The Year 2525 (4:18)
10 Lie On Grass (2:43)
11 2nd Step (5:19)
12 Suicide Of The Guardian Angel (3:58)
Доп. информация:
Код:
Exact Audio Copy V0.99 prebeta 4 from 23. January 2008
EAC extraction logfile from 29. October 2008, 14:13
Project Pitchfork / Dhyani
Used drive  : TSSTcorpDVD+-RW TS-H653B   Adapter: 1  ID: 0
Read mode               : Secure
Utilize accurate stream : Yes
Defeat audio cache      : Yes
Make use of C2 pointers : No
Read offset correction                      : 6
Overread into Lead-In and Lead-Out          : No
Fill up missing offset samples with silence : Yes
Delete leading and trailing silent blocks   : No
Null samples used in CRC calculations       : Yes
Used interface                              : Installed external ASPI interface
Gap handling                                : Appended to previous track
Used output format              : User Defined Encoder
Selected bitrate                : 192 kBit/s
Quality                         : High
Add ID3 tag                     : No
Command line compressor         : C:\Program Files\Exact Audio Copy\Flac\flac.exe
Additional command line options : -V -8 -T "artist=%a" -T "title=%t" -T "album=%g" -T "date=%y" -T "tracknumber=%n" -T "genre=%m" %s
TOC of the extracted CD
     Track |   Start  |  Length  | Start sector | End sector
    ---------------------------------------------------------
        1  |  0:00.33 |  4:16.30 |        33    |    19262
        2  |  4:16.63 |  4:06.17 |     19263    |    37729
        3  |  8:23.05 |  4:02.28 |     37730    |    55907
        4  | 12:25.33 |  4:04.45 |     55908    |    74252
        5  | 16:30.03 |  4:58.37 |     74253    |    96639
        6  | 21:28.40 |  4:12.68 |     96640    |   115607
        7  | 25:41.33 |  6:03.70 |    115608    |   142902
        8  | 31:45.28 |  6:07.65 |    142903    |   170492
        9  | 37:53.18 |  4:18.62 |    170493    |   189904
       10  | 42:12.05 |  2:43.63 |    189905    |   202192
       11  | 44:55.68 |  5:19.72 |    202193    |   226189
       12  | 50:15.65 |  3:58.25 |    226190    |   244064
Track  1
     Filename F:\Project Pitchfork (1991) - Dhyani (Re-released in 1994)\01 Project Pitchfork - Lost Youth of a Prisoner.wav
     Pre-gap length  0:00:02.44
     Peak level 93.1 %
     Track quality 100.0 %
     Test CRC 920EC23C
     Copy CRC 920EC23C
     Accurately ripped (confidence 3)  [5756918A]
     Copy OK
Track  2
     Filename F:\Project Pitchfork (1991) - Dhyani (Re-released in 1994)\02 Project Pitchfork - Fire and Ice.wav
     Pre-gap length  0:00:02.10
     Peak level 98.3 %
     Track quality 100.0 %
     Test CRC 1413B193
     Copy CRC 1413B193
     Accurately ripped (confidence 3)  [8AC8D569]
     Copy OK
Track  3
     Filename F:\Project Pitchfork (1991) - Dhyani (Re-released in 1994)\03 Project Pitchfork - Inside.wav
     Pre-gap length  0:00:02.89
     Peak level 97.7 %
     Track quality 100.0 %
     Test CRC D6FB6ACD
     Copy CRC D6FB6ACD
     Accurately ripped (confidence 3)  [3DE93F08]
     Copy OK
Track  4
     Filename F:\Project Pitchfork (1991) - Dhyani (Re-released in 1994)\04 Project Pitchfork - Doom.wav
     Pre-gap length  0:00:02.60
     Peak level 92.8 %
     Track quality 100.0 %
     Test CRC 53825865
     Copy CRC 53825865
     Accurately ripped (confidence 3)  [FE0B42B2]
     Copy OK
Track  5
     Filename F:\Project Pitchfork (1991) - Dhyani (Re-released in 1994)\05 Project Pitchfork - Box of Steel.wav
     Pre-gap length  0:00:02.24
     Peak level 96.6 %
     Track quality 100.0 %
     Test CRC 48890DAE
     Copy CRC 48890DAE
     Accurately ripped (confidence 2)  [B6C8443E]
     Copy OK
Track  6
     Filename F:\Project Pitchfork (1991) - Dhyani (Re-released in 1994)\06 Project Pitchfork - K.N.K.A..wav
     Pre-gap length  0:00:02.96
     Peak level 93.4 %
     Track quality 100.0 %
     Test CRC 1A52A925
     Copy CRC 1A52A925
     Accurately ripped (confidence 3)  [B0AB7E9F]
     Copy OK
Track  7
     Filename F:\Project Pitchfork (1991) - Dhyani (Re-released in 1994)\07 Project Pitchfork - Vietnam.wav
     Pre-gap length  0:00:02.53
     Peak level 98.5 %
     Track quality 99.9 %
     Test CRC 037E86D2
     Copy CRC 037E86D2
     Accurately ripped (confidence 3)  [E4E05E6B]
     Copy OK
Track  8
     Filename F:\Project Pitchfork (1991) - Dhyani (Re-released in 1994)\08 Project Pitchfork - Message.wav
     Pre-gap length  0:00:01.77
     Peak level 93.6 %
     Track quality 100.0 %
     Test CRC D9BA3C02
     Copy CRC D9BA3C02
     Accurately ripped (confidence 3)  [2293948E]
     Copy OK
Track  9
     Filename F:\Project Pitchfork (1991) - Dhyani (Re-released in 1994)\09 Project Pitchfork - In the Year 2525.wav
     Pre-gap length  0:00:02.70
     Peak level 90.9 %
     Track quality 100.0 %
     Test CRC 638FD6CD
     Copy CRC 638FD6CD
     Accurately ripped (confidence 3)  [CA2966C9]
     Copy OK
Track 10
     Filename F:\Project Pitchfork (1991) - Dhyani (Re-released in 1994)\10 Project Pitchfork - Lie on Grass.wav
     Pre-gap length  0:00:02.06
     Peak level 93.3 %
     Track quality 100.0 %
     Test CRC 9A454319
     Copy CRC 9A454319
     Accurately ripped (confidence 3)  [EF2AC526]
     Copy OK
Track 11
     Filename F:\Project Pitchfork (1991) - Dhyani (Re-released in 1994)\11 Project Pitchfork - 2nd Step.wav
     Pre-gap length  0:00:02.98
     Peak level 97.2 %
     Track quality 100.0 %
     Test CRC 14FBE8DB
     Copy CRC 14FBE8DB
     Accurately ripped (confidence 3)  [94928975]
     Copy OK
Track 12
     Filename F:\Project Pitchfork (1991) - Dhyani (Re-released in 1994)\12 Project Pitchfork - Suicide of the Guardian Angel.wav
     Pre-gap length  0:00:02.82
     Peak level 90.0 %
     Track quality 100.0 %
     Test CRC EE600C8D
     Copy CRC EE600C8D
     Accurately ripped (confidence 3)  [3017F577]
     Copy OK
All tracks accurately ripped
No errors occurred
End of status report
Правила, инструкции, FAQ!!!
Торрент  Добавлен [26 июн 2020, 17:39] Скачать торрент Магнет ссылка
Скачать торрент
[ Размер 12.87 КБ / Просмотров 11 ]

Статус
Проверен 
 
Размер  291.93 МБ
Приватный: Нет (DHT включён)
.torrent скачан  0
 


     Отправить личное сообщение
   
Страница 1 из 1
Показать сообщения за:  Поле сортировки  
Начать новую тему Ответить на тему


Сейчас этот форум просматривают: нет зарегистрированных пользователей и гости: 0


Вы не можете начинать темы
Вы не можете отвечать на сообщения
Вы не можете редактировать свои сообщения
Вы не можете удалять свои сообщения
Вы не можете добавлять вложения

Перейти:  
cron