Начать новую тему Ответить на тему
Статистика раздачи
Размер: 174.22 МБ | Добавлен: 26 июн 2020, 17:31 | Скачали: 0
Сидеров: 0  [0 байт/сек]    Личеров: 0  [0 байт/сек]
Пред. тема | След. тема 

Автор
Сообщение

СообщениеДобавлено: 26 июн 2020, 17:31 

Ответить с цитатой 

Project Pitchfork - Carrion (MCD)

Жанр: Electro / Industrial
Год выпуска диска: 1993
Производитель диска: Germany
Аудио кодек: APE
Тип рипа: image+.cue
Битрейт аудио: lossless
Продолжительность: 21:09
Трэклист:
1 Carrion (5:27)
2 Circus Of Death (4:12)
3 Carrion (Decay Mix) (5:54)
4 Carrion (Clear Mix) (5:34)
Доп. информация: Off Beat / SPV 055-38853 CDS
Код:
Exact Audio Copy V0.99 prebeta 4 from 23. January 2008
EAC extraction logfile from 4. December 2008, 21:28
Project Pitchfork / Carrion
Used drive  : TEAC    DV-W520GS   Adapter: 5  ID: 0
Read mode               : Secure
Utilize accurate stream : Yes
Defeat audio cache      : Yes
Make use of C2 pointers : No
Read offset correction                      : 6
Overread into Lead-In and Lead-Out          : No
Fill up missing offset samples with silence : Yes
Delete leading and trailing silent blocks   : No
Null samples used in CRC calculations       : Yes
Used interface                              : Installed external ASPI interface
Used output format : Internal WAV Routines
Sample format      : 44.100 Hz; 16 Bit; Stereo
TOC of the extracted CD
     Track |   Start  |  Length  | Start sector | End sector
    ---------------------------------------------------------
        1  |  0:00.00 |  5:27.47 |         0  |       24571
        2  |  5:27.47 |  4:12.43 |     24572  |       43514
        3  |  9:40.15 |  5:54.32 |     43515  |       70096
        4  | 15:34.47 |  5:34.28 |     70097  |       95174
Range status and errors
Selected range
   Filename J:\Project Pitchfork - Carrion CD5\CDImage.wav
   Peak level 98.8 %
   Range quality 100.0 %
   Test CRC 13A0CCA1
   Copy CRC 13A0CCA1
   Copy OK
No errors occurred
AccurateRip summary
Track  1  accurately ripped (confidence 3)  [F95BD4AB]
Track  2  accurately ripped (confidence 4)  [A04C5BC7]
Track  3  accurately ripped (confidence 3)  [5AAEEE03]
Track  4  accurately ripped (confidence 3)  [9D06D132]
All tracks accurately ripped
End of status report
Код:
AUDIOCHECKER v2.0 beta (build 457) - by Dester - opdester@freemail.hu
~~~~~~~~~~~~~~~~~~~~~~~~~~~~~~~~~~
-=== DO NOT EDIT THIS FILE! ===-
Path: ...\Project Pitchfork - Carrion CD5
01 -=- CDImage.wav -=- CDDA (100%)
190127764
Правила, инструкции, FAQ!!!
Торрент  Добавлен [26 июн 2020, 17:31] Скачать торрент Магнет ссылка
Скачать торрент
[ Размер 14.52 КБ / Просмотров 5 ]

Статус
Проверен 
 
Размер  174.22 МБ
Приватный: Нет (DHT включён)
.torrent скачан  0
 


     Отправить личное сообщение
   
Страница 1 из 1
Показать сообщения за:  Поле сортировки  
Начать новую тему Ответить на тему


Сейчас этот форум просматривают: нет зарегистрированных пользователей и гости: 0


Вы не можете начинать темы
Вы не можете отвечать на сообщения
Вы не можете редактировать свои сообщения
Вы не можете удалять свои сообщения
Вы не можете добавлять вложения

Перейти:  
cron