Начать новую тему Ответить на тему
Статистика раздачи
Размер: 537.13 МБ | Добавлен: 26 июн 2020, 16:52 | Скачали: 0
Сидеров: 0  [0 байт/сек]    Личеров: 0  [0 байт/сек]
Пред. тема | След. тема 

Автор
Сообщение

СообщениеДобавлено: 26 июн 2020, 16:52 

Ответить с цитатой 

Prayer Tower / Halo
Жанр: Electronic / Electro, Industrial
Страна-производитель диска: US
Год издания диска: 1993
Издатель (лейбл): Third Mind Records
Номер по каталогу: TM 9107 2
Формат: CD, Album
Аудиокодек: FLAC (*.flac)
Тип рипа: image+.cue
Битрейт аудио: lossless
Продолжительность: 1:13:12.05
Источник (релизер): Физический носитель (Собственный рип с оригинала).
Наличие сканов в содержимом раздачи: да
Треклист:
01. Euphoria [3:59]
02. Brainchild [5:21]
03. Electric State [5:24]
04. Crash Out [4:39]
05. Sugar The Pill [3:50]
06. Temptation [7:24]
07. Deliverance [4:39]
08. Strange Suicide [4:07]
09. Deception [4:49]
10. Hate Like This [6:30]
11. Electric State (DSK Mix) [5:33]
12. Temptation (Original Mix) [4:30]
13. Deception (Like This) [5:49]
14. Sugar The Pill (Instrumental) [6:38]
Код:
Exact Audio Copy V1.0 beta 3 from 29. August 2011
EAC extraction logfile from 30. January 2012, 0:00
Prayer Tower / Halo
Used drive  : PLEXTOR BDDVDR PX-B320SA   Adapter: 0  ID: 2
Read mode               : Secure
Utilize accurate stream : Yes
Defeat audio cache      : Yes
Make use of C2 pointers : No
Read offset correction                      : 6
Overread into Lead-In and Lead-Out          : No
Fill up missing offset samples with silence : Yes
Delete leading and trailing silent blocks   : No
Null samples used in CRC calculations       : Yes
Used interface                              : Native Win32 interface for Win NT & 2000
Used output format              : User Defined Encoder
Selected bitrate                : 128 kBit/s
Quality                         : High
Add ID3 tag                     : No
Command line compressor         : C:\Program Files (x86)\FLAC\flac.exe
Additional command line options : -V -8 -T "Date=%year%" -T "Genre=%genre%" %source%
TOC of the extracted CD
     Track |   Start  |  Length  | Start sector | End sector
    ---------------------------------------------------------
        1  |  0:00.00 |  3:59.27 |         0    |    17951
        2  |  3:59.27 |  5:20.60 |     17952    |    42011
        3  |  9:20.12 |  5:23.70 |     42012    |    66306
        4  | 14:44.07 |  4:39.25 |     66307    |    87256
        5  | 19:23.32 |  3:50.15 |     87257    |   104521
        6  | 23:13.47 |  7:24.10 |    104522    |   137831
        7  | 30:37.57 |  4:38.68 |    137832    |   158749
        8  | 35:16.50 |  4:06.55 |    158750    |   177254
        9  | 39:23.30 |  4:48.70 |    177255    |   198924
       10  | 44:12.25 |  6:29.62 |    198925    |   228161
       11  | 50:42.12 |  5:32.40 |    228162    |   253101
       12  | 56:14.52 |  4:30.33 |    253102    |   273384
       13  | 60:45.10 |  5:49.20 |    273385    |   299579
       14  | 66:34.30 |  6:37.50 |    299580    |   329404
Range status and errors
Selected range
     Filename D:\Prayer Tower - Halo (1993)\Prayer Tower - Halo.wav
     Peak level 100.0 %
     Extraction speed 3.9 X
     Range quality 100.0 %
     Test CRC E51FFD83
     Copy CRC E51FFD83
     Copy OK
No errors occurred
AccurateRip summary
Track  1  accurately ripped (confidence 3)  [641B7D16]  (AR v1)
Track  2  accurately ripped (confidence 3)  [50B254D7]  (AR v1)
Track  3  accurately ripped (confidence 3)  [AE19EEAB]  (AR v1)
Track  4  accurately ripped (confidence 3)  [1A8D390D]  (AR v1)
Track  5  accurately ripped (confidence 3)  [66DAA10C]  (AR v1)
Track  6  accurately ripped (confidence 3)  [9C7838CC]  (AR v1)
Track  7  accurately ripped (confidence 3)  [1355FBCD]  (AR v1)
Track  8  accurately ripped (confidence 3)  [0EC83797]  (AR v1)
Track  9  accurately ripped (confidence 3)  [5D11B956]  (AR v1)
Track 10  accurately ripped (confidence 3)  [4C82D6A5]  (AR v1)
Track 11  accurately ripped (confidence 3)  [5A087EB8]  (AR v1)
Track 12  accurately ripped (confidence 3)  [80EB7A3D]  (AR v1)
Track 13  accurately ripped (confidence 3)  [28C025B9]  (AR v1)
Track 14  accurately ripped (confidence 3)  [108A1787]  (AR v1)
All tracks accurately ripped
End of status report
==== Log checksum 186B77471A30E36F1650DA3CBF15083EA2D96397BEFDC149700E555CFEEA197E ====
Правила, инструкции, FAQ!!!
Торрент  Добавлен [26 июн 2020, 16:52] Скачать торрент Магнет ссылка
Скачать торрент
[ Размер 11.35 КБ / Просмотров 5 ]

Статус
Проверен 
 
Размер  537.13 МБ
Приватный: Нет (DHT включён)
.torrent скачан  0
 


     Отправить личное сообщение
   
Страница 1 из 1
Показать сообщения за:  Поле сортировки  
Начать новую тему Ответить на тему


Сейчас этот форум просматривают: нет зарегистрированных пользователей и гости: 0


Вы не можете начинать темы
Вы не можете отвечать на сообщения
Вы не можете редактировать свои сообщения
Вы не можете удалять свои сообщения
Вы не можете добавлять вложения

Перейти:  
cron