Начать новую тему Ответить на тему
Статистика раздачи
Размер: 1.22 ГБ | Добавлен: 26 июн 2020, 16:53 | Скачали: 0
Сидеров: 0  [0 байт/сек]    Личеров: 0  [0 байт/сек]
Пред. тема | След. тема 

Автор
Сообщение

СообщениеДобавлено: 26 июн 2020, 16:53 

Ответить с цитатой 

Plasmodivm / 2 Albums
Жанр: Electro, Industrial
Страна-производитель диска: Spain
Год издания диска: 2008-2011
Издатель (лейбл): Caustic Records
Номер по каталогу: CRR021, CRR029
Страна: Spain
Аудио кодек: FLAC (*.flac)
Тип рипа: tracks+.cue
Битрейт аудио: lossless
Продолжительность: 144:54
Источник (релизер): 2 CD-R
Наличие сканов в содержимом раздачи: нет
Доп. информация: http://www.discogs.com/artist/Plasmodivm
http://www.myspace.com/plasmodivmproject
http://www.lastfm.ru/music/Plasmodivm
Sandro Veras
#777Треклист:
1 Intro (Mi Vida Se Apaga Pt. 1) 6:04
2 Be Impure Stay Impure 5:39
3 Life As Slave 4:03
4 Rise 6:07
5 Fade Away 7:41
6 El Sistema Se Ha Vuelto Extraño 5:17
7 Embrace My Fear 3:01
8 Medication Time 5:34
9 Sufrimientos 4:40
10 My Ghosts Are Being Fed By Fear 4:27
11 Soul Destroying 6:00
12 Ruptura Inminente 6:35
13 Outro (Mi Vida Se Apaga Pt. 2) 7:10
Код:
Exact Audio Copy V0.99 prebeta 5 from 4. May 2009
EAC extraction logfile from 1. January 2011, 10:16
Plasmodivm / Paradise Under Fire
Used drive  : PIONEER DVD-RW  DVR-216D   Adapter: 0  ID: 0
Read mode               : Secure
Utilize accurate stream : Yes
Defeat audio cache      : Yes
Make use of C2 pointers : No
Read offset correction                      : 96
Overread into Lead-In and Lead-Out          : No
Fill up missing offset samples with silence : Yes
Delete leading and trailing silent blocks   : No
Null samples used in CRC calculations       : Yes
Used interface                              : Native Win32 interface for Win NT & 2000
Gap handling                                : Appended to previous track
Used output format              : User Defined Encoder
Selected bitrate                : 1024 kBit/s
Quality                         : High
Add ID3 tag                     : No
Command line compressor         : C:\Program Files (x86)\Exact Audio Copy\Flac\flac.exe
Additional command line options : -8 -V -T "ARTIST=%a" -T "TITLE=%t" -T "ALBUM=%g" -T "DATE=%y" -T "TRACKNUMBER=%n" -T "GENRE=%m" -T "COMMENT=EAC FLAC -8" %s
TOC of the extracted CD
     Track |   Start  |  Length  | Start sector | End sector
    ---------------------------------------------------------
        1  |  0:00.00 |  6:04.16 |         0    |    27315
        2  |  6:04.16 |  5:38.58 |     27316    |    52723
        3  | 11:42.74 |  4:03.03 |     52724    |    70951
        4  | 15:46.02 |  6:07.28 |     70952    |    98504
        5  | 21:53.30 |  7:41.01 |     98505    |   133080
        6  | 29:34.31 |  5:17.18 |    133081    |   156873
        7  | 34:51.49 |  3:01.14 |    156874    |   170462
        8  | 37:52.63 |  5:34.00 |    170463    |   195512
        9  | 43:26.63 |  4:40.00 |    195513    |   216512
       10  | 48:06.63 |  4:26.46 |    216513    |   236508
       11  | 52:33.34 |  6:00.10 |    236509    |   263518
       12  | 58:33.44 |  6:35.35 |    263519    |   293178
       13  | 65:09.04 |  7:09.48 |    293179    |   325401
Track  1
     Filename I:\Audio\TORRENTS\Plasmodivm - Paradise Under Fire-2008\tracks\ 01. Plasmodivm – Intro (Mi Vida Se Apaga, Pt. 1).wav
     Pre-gap length  0:00:02.00
     Peak level 100.0 %
     Track quality 100.0 %
     Test CRC 4B030A6F
     Copy CRC 4B030A6F
     Track not present in AccurateRip database
     Copy OK
Track  2
     Filename I:\Audio\TORRENTS\Plasmodivm - Paradise Under Fire-2008\tracks\ 02. Plasmodivm – Be Impure Stay Impure.wav
     Peak level 100.0 %
     Track quality 100.0 %
     Test CRC DAA786F5
     Copy CRC DAA786F5
     Track not present in AccurateRip database
     Copy OK
Track  3
     Filename I:\Audio\TORRENTS\Plasmodivm - Paradise Under Fire-2008\tracks\ 03. Plasmodivm – Life As Slave.wav
     Peak level 100.0 %
     Track quality 100.0 %
     Test CRC BAEEA76C
     Copy CRC BAEEA76C
     Track not present in AccurateRip database
     Copy OK
Track  4
     Filename I:\Audio\TORRENTS\Plasmodivm - Paradise Under Fire-2008\tracks\ 04. Plasmodivm – Rise.wav
     Peak level 100.0 %
     Track quality 100.0 %
     Test CRC C8C1B3D9
     Copy CRC C8C1B3D9
     Track not present in AccurateRip database
     Copy OK
Track  5
     Filename I:\Audio\TORRENTS\Plasmodivm - Paradise Under Fire-2008\tracks\ 05. Plasmodivm – Fade Away.wav
     Peak level 100.0 %
     Track quality 100.0 %
     Test CRC CE5CCF4C
     Copy CRC CE5CCF4C
     Track not present in AccurateRip database
     Copy OK
Track  6
     Filename I:\Audio\TORRENTS\Plasmodivm - Paradise Under Fire-2008\tracks\ 06. Plasmodivm – El Sistema Se Ha Vuelto Extrano.wav
     Peak level 100.0 %
     Track quality 100.0 %
     Test CRC F34DC332
     Copy CRC F34DC332
     Track not present in AccurateRip database
     Copy OK
Track  7
     Filename I:\Audio\TORRENTS\Plasmodivm - Paradise Under Fire-2008\tracks\ 07. Plasmodivm – Embrace My Fear.wav
     Peak level 100.0 %
     Track quality 100.0 %
     Test CRC 3A3F2471
     Copy CRC 3A3F2471
     Track not present in AccurateRip database
     Copy OK
Track  8
     Filename I:\Audio\TORRENTS\Plasmodivm - Paradise Under Fire-2008\tracks\ 08. Plasmodivm – Medication Time.wav
     Peak level 100.0 %
     Track quality 100.0 %
     Test CRC 03D64455
     Copy CRC 03D64455
     Track not present in AccurateRip database
     Copy OK
Track  9
     Filename I:\Audio\TORRENTS\Plasmodivm - Paradise Under Fire-2008\tracks\ 09. Plasmodivm – Sufrimientos.wav
     Peak level 100.0 %
     Track quality 100.0 %
     Test CRC 06C91371
     Copy CRC 06C91371
     Track not present in AccurateRip database
     Copy OK
Track 10
     Filename I:\Audio\TORRENTS\Plasmodivm - Paradise Under Fire-2008\tracks\ 10. Plasmodivm – My Ghosts Are Being Fed By Fear.wav
     Peak level 100.0 %
     Track quality 99.9 %
     Test CRC C9EEE56A
     Copy CRC C9EEE56A
     Track not present in AccurateRip database
     Copy OK
Track 11
     Filename I:\Audio\TORRENTS\Plasmodivm - Paradise Under Fire-2008\tracks\ 11. Plasmodivm – Soul Destroying.wav
     Peak level 100.0 %
     Track quality 100.0 %
     Test CRC 61302161
     Copy CRC 61302161
     Track not present in AccurateRip database
     Copy OK
Track 12
     Filename I:\Audio\TORRENTS\Plasmodivm - Paradise Under Fire-2008\tracks\ 12. Plasmodivm – Ruptura Inminente.wav
     Peak level 100.0 %
     Track quality 99.9 %
     Test CRC 8829B388
     Copy CRC 8829B388
     Track not present in AccurateRip database
     Copy OK
Track 13
     Filename I:\Audio\TORRENTS\Plasmodivm - Paradise Under Fire-2008\tracks\ 13. Plasmodivm – Outro (Mi Vida Se Apaga, Pt. 2).wav
     Peak level 100.0 %
     Track quality 100.0 %
     Test CRC F830BF15
     Copy CRC F830BF15
     Track not present in AccurateRip database
     Copy OK
None of the tracks are present in the AccurateRip database
No errors occurred
End of status report
Код:
REM GENRE Electronic
REM DATE 2008
REM DISCID C110F20D
REM COMMENT "ExactAudioCopy v0.99pb5"
PERFORMER "Plasmodivm"
TITLE "Paradise Under Fire"
FILE " 01. Plasmodivm – Intro (Mi Vida Se Apaga, Pt. 1).wav" WAVE
  TRACK 01 AUDIO
    TITLE "Intro (Mi Vida Se Apaga, Pt. 1)"
    PERFORMER "Plasmodivm"
    INDEX 01 00:00:00
FILE " 02. Plasmodivm – Be Impure Stay Impure.wav" WAVE
  TRACK 02 AUDIO
    TITLE "Be Impure Stay Impure"
    PERFORMER "Plasmodivm"
    INDEX 01 00:00:00
FILE " 03. Plasmodivm – Life As Slave.wav" WAVE
  TRACK 03 AUDIO
    TITLE "Life As Slave"
    PERFORMER "Plasmodivm"
    INDEX 01 00:00:00
FILE " 04. Plasmodivm – Rise.wav" WAVE
  TRACK 04 AUDIO
    TITLE "Rise"
    PERFORMER "Plasmodivm"
    INDEX 01 00:00:00
FILE " 05. Plasmodivm – Fade Away.wav" WAVE
  TRACK 05 AUDIO
    TITLE "Fade Away"
    PERFORMER "Plasmodivm"
    INDEX 01 00:00:00
FILE " 06. Plasmodivm – El Sistema Se Ha Vuelto Extrano.wav" WAVE
  TRACK 06 AUDIO
    TITLE "El Sistema Se Ha Vuelto Extrano"
    PERFORMER "Plasmodivm"
    INDEX 01 00:00:00
FILE " 07. Plasmodivm – Embrace My Fear.wav" WAVE
  TRACK 07 AUDIO
    TITLE "Embrace My Fear"
    PERFORMER "Plasmodivm"
    INDEX 01 00:00:00
FILE " 08. Plasmodivm – Medication Time.wav" WAVE
  TRACK 08 AUDIO
    TITLE "Medication Time"
    PERFORMER "Plasmodivm"
    INDEX 01 00:00:00
FILE " 09. Plasmodivm – Sufrimientos.wav" WAVE
  TRACK 09 AUDIO
    TITLE "Sufrimientos"
    PERFORMER "Plasmodivm"
    INDEX 01 00:00:00
FILE " 10. Plasmodivm – My Ghosts Are Being Fed By Fear.wav" WAVE
  TRACK 10 AUDIO
    TITLE "My Ghosts Are Being Fed By Fear"
    PERFORMER "Plasmodivm"
    INDEX 01 00:00:00
FILE " 11. Plasmodivm – Soul Destroying.wav" WAVE
  TRACK 11 AUDIO
    TITLE "Soul Destroying"
    PERFORMER "Plasmodivm"
    INDEX 01 00:00:00
FILE " 12. Plasmodivm – Ruptura Inminente.wav" WAVE
  TRACK 12 AUDIO
    TITLE "Ruptura Inminente"
    PERFORMER "Plasmodivm"
    INDEX 01 00:00:00
FILE " 13. Plasmodivm – Outro (Mi Vida Se Apaga, Pt. 2).wav" WAVE
  TRACK 13 AUDIO
    TITLE "Outro (Mi Vida Se Apaga, Pt. 2)"
    PERFORMER "Plasmodivm"
    INDEX 01 00:00:00
Код:
Started at: суббота, 01. 01. 2011. - 9:20.23
13 files found
01 -===- track 1 in drive PIONEER DVD-RW  DVR-216D
  Track ripped successfully
  Conclusion: this track is CDDA with probability 100%
  Tempfile successfully deleted.
02 -===- track 2 in drive PIONEER DVD-RW  DVR-216D
  Track ripped successfully
  Conclusion: this track is CDDA with probability 100%
  Tempfile successfully deleted.
03 -===- track 3 in drive PIONEER DVD-RW  DVR-216D
  Track ripped successfully
  Conclusion: this track is CDDA with probability 100%
  Tempfile successfully deleted.
04 -===- track 4 in drive PIONEER DVD-RW  DVR-216D
  Track ripped successfully
  Conclusion: this track is CDDA with probability 100%
  Tempfile successfully deleted.
05 -===- track 5 in drive PIONEER DVD-RW  DVR-216D
  Track ripped successfully
  Conclusion: this track is CDDA with probability 100%
  Tempfile successfully deleted.
06 -===- track 6 in drive PIONEER DVD-RW  DVR-216D
  Track ripped successfully
  Conclusion: this track is CDDA with probability 100%
  Tempfile successfully deleted.
07 -===- track 7 in drive PIONEER DVD-RW  DVR-216D
  Track ripped successfully
  Conclusion: this track is CDDA with probability 100%
  Tempfile successfully deleted.
08 -===- track 8 in drive PIONEER DVD-RW  DVR-216D
  Track ripped successfully
  Conclusion: this track is CDDA with probability 100%
  Tempfile successfully deleted.
09 -===- track 9 in drive PIONEER DVD-RW  DVR-216D
  Track ripped successfully
  Conclusion: this track is CDDA with probability 100%
  Tempfile successfully deleted.
10 -===- track 10 in drive PIONEER DVD-RW  DVR-216D
  Track ripped successfully
  Conclusion: this track is CDDA with probability 100%
  Tempfile successfully deleted.
11 -===- track 11 in drive PIONEER DVD-RW  DVR-216D
  Track ripped successfully
  Conclusion: this track is CDDA with probability 100%
  Tempfile successfully deleted.
12 -===- track 12 in drive PIONEER DVD-RW  DVR-216D
  Track ripped successfully
  Conclusion: this track is CDDA with probability 100%
  Tempfile successfully deleted.
13 -===- track 13 in drive PIONEER DVD-RW  DVR-216D
  Track ripped successfully
  Conclusion: this track is CDDA with probability 100%
  Tempfile successfully deleted.
Finished at: суббота, 01. 01. 2011. - 9:30.54 (operation time: 0:10.31)
#777Треклист:
1 I Have Killed A Man 5:37
2 Instinto Homicida 5:53
3 Voices 4:20
4 Dead Inside 4:38
5 Vía Negativa 5:35
6 Unbreakable Will 5:17
7 Post-Modern/Post-Human 6:06
8 The Beginning Of My End 4:45
9 The Fear Of Being Alive 3:00
10 High-Speed Collision 5:09
11 Smashing White Pills 4:27
12 A New Beginning 5:46
13 Lost Dreams 4:43
14 Réquiem (Missa Pro Defunctis) 7:18
Код:
Exact Audio Copy V0.99 prebeta 5 from 4. May 2009
EAC extraction logfile from 27. August 2011, 20:52
Plasmodivm / The Post-Modern Prometheus
Used drive  : PIONEER BD-RW   BDR-206M   Adapter: 0  ID: 3
Read mode               : Secure
Utilize accurate stream : Yes
Defeat audio cache      : Yes
Make use of C2 pointers : No
Read offset correction                      : 667
Overread into Lead-In and Lead-Out          : No
Fill up missing offset samples with silence : Yes
Delete leading and trailing silent blocks   : No
Null samples used in CRC calculations       : Yes
Used interface                              : Native Win32 interface for Win NT & 2000
Gap handling                                : Appended to previous track
Used output format              : User Defined Encoder
Selected bitrate                : 1024 kBit/s
Quality                         : High
Add ID3 tag                     : No
Command line compressor         : C:\Program Files (x86)\Exact Audio Copy\Flac\flac.exe
Additional command line options : -8 -V -T "ARTIST=%a" -T "TITLE=%t" -T "ALBUM=%g" -T "DATE=%y" -T "TRACKNUMBER=%n" -T "GENRE=%m" -T "COMMENT=EAC FLAC -8" %s
TOC of the extracted CD
     Track |   Start  |  Length  | Start sector | End sector
    ---------------------------------------------------------
        1  |  0:00.00 |  5:36.47 |         0    |    25246
        2  |  5:36.47 |  5:53.28 |     25247    |    51749
        3  | 11:30.00 |  4:19.54 |     51750    |    71228
        4  | 15:49.54 |  4:38.01 |     71229    |    92079
        5  | 20:27.55 |  5:35.26 |     92080    |   117230
        6  | 26:03.06 |  5:17.11 |    117231    |   141016
        7  | 31:20.17 |  6:06.34 |    141017    |   168500
        8  | 37:26.51 |  4:45.26 |    168501    |   189901
        9  | 42:12.02 |  3:00.34 |    189902    |   203435
       10  | 45:12.36 |  5:08.51 |    203436    |   226586
       11  | 50:21.12 |  4:27.23 |    226587    |   246634
       12  | 54:48.35 |  5:45.69 |    246635    |   272578
       13  | 60:34.29 |  4:42.39 |    272579    |   293767
       14  | 65:16.68 |  7:18.01 |    293768    |   326618
Track  1
     Filename C:\Users\Usa\Desktop\Plasmodivm – The Post-Modern Prometheus-2011\tracks\01. Plasmodivm - I Have Killed A Man.wav
     Pre-gap length  0:00:02.00
     Peak level 100.0 %
     Track quality 100.0 %
     Test CRC B81BCECD
     Copy CRC B81BCECD
     Track not present in AccurateRip database
     Copy OK
Track  2
     Filename C:\Users\Usa\Desktop\Plasmodivm – The Post-Modern Prometheus-2011\tracks\02. Plasmodivm - Instinto Homicida.wav
     Peak level 100.0 %
     Track quality 100.0 %
     Test CRC BBFA20F6
     Copy CRC BBFA20F6
     Track not present in AccurateRip database
     Copy OK
Track  3
     Filename C:\Users\Usa\Desktop\Plasmodivm – The Post-Modern Prometheus-2011\tracks\03. Plasmodivm - Voices.wav
     Peak level 100.0 %
     Track quality 100.0 %
     Test CRC 508FADF9
     Copy CRC 508FADF9
     Track not present in AccurateRip database
     Copy OK
Track  4
     Filename C:\Users\Usa\Desktop\Plasmodivm – The Post-Modern Prometheus-2011\tracks\04. Plasmodivm - Dead Inside.wav
     Peak level 100.0 %
     Track quality 100.0 %
     Test CRC F0D3F09B
     Copy CRC F0D3F09B
     Track not present in AccurateRip database
     Copy OK
Track  5
     Filename C:\Users\Usa\Desktop\Plasmodivm – The Post-Modern Prometheus-2011\tracks\05. Plasmodivm - Via Negativa.wav
     Peak level 100.0 %
     Track quality 99.9 %
     Test CRC 0EF037AA
     Copy CRC 0EF037AA
     Track not present in AccurateRip database
     Copy OK
Track  6
     Filename C:\Users\Usa\Desktop\Plasmodivm – The Post-Modern Prometheus-2011\tracks\06. Plasmodivm - Unbreakable Will.wav
     Peak level 100.0 %
     Track quality 100.0 %
     Test CRC 5462C97B
     Copy CRC 5462C97B
     Track not present in AccurateRip database
     Copy OK
Track  7
     Filename C:\Users\Usa\Desktop\Plasmodivm – The Post-Modern Prometheus-2011\tracks\07. Plasmodivm - Post-Modern , Post-Human.wav
     Peak level 100.0 %
     Track quality 100.0 %
     Test CRC E1F34B66
     Copy CRC E1F34B66
     Track not present in AccurateRip database
     Copy OK
Track  8
     Filename C:\Users\Usa\Desktop\Plasmodivm – The Post-Modern Prometheus-2011\tracks\08. Plasmodivm - The Beginning Of My End.wav
     Peak level 100.0 %
     Track quality 100.0 %
     Test CRC 0416706C
     Copy CRC 0416706C
     Track not present in AccurateRip database
     Copy OK
Track  9
     Filename C:\Users\Usa\Desktop\Plasmodivm – The Post-Modern Prometheus-2011\tracks\09. Plasmodivm - The Fear Of Being Alive.wav
     Peak level 100.0 %
     Track quality 100.0 %
     Test CRC EFAFEF60
     Copy CRC EFAFEF60
     Track not present in AccurateRip database
     Copy OK
Track 10
     Filename C:\Users\Usa\Desktop\Plasmodivm – The Post-Modern Prometheus-2011\tracks\10. Plasmodivm - High-Speed Collision.wav
     Peak level 100.0 %
     Track quality 100.0 %
     Test CRC F1635E98
     Copy CRC F1635E98
     Track not present in AccurateRip database
     Copy OK
Track 11
     Filename C:\Users\Usa\Desktop\Plasmodivm – The Post-Modern Prometheus-2011\tracks\11. Plasmodivm - Smashing White Pills.wav
     Peak level 100.0 %
     Track quality 99.9 %
     Test CRC 53620B51
     Copy CRC 53620B51
     Track not present in AccurateRip database
     Copy OK
Track 12
     Filename C:\Users\Usa\Desktop\Plasmodivm – The Post-Modern Prometheus-2011\tracks\12. Plasmodivm - A New Beginning.wav
     Peak level 100.0 %
     Track quality 100.0 %
     Test CRC D5E3ECEE
     Copy CRC D5E3ECEE
     Track not present in AccurateRip database
     Copy OK
Track 13
     Filename C:\Users\Usa\Desktop\Plasmodivm – The Post-Modern Prometheus-2011\tracks\13. Plasmodivm - Lost Dreams.wav
     Peak level 100.0 %
     Track quality 100.0 %
     Test CRC D054E73C
     Copy CRC D054E73C
     Track not present in AccurateRip database
     Copy OK
Track 14
     Filename C:\Users\Usa\Desktop\Plasmodivm – The Post-Modern Prometheus-2011\tracks\14. Plasmodivm - Requiem (Missa Pro Defunctis).wav
     Peak level 100.0 %
     Track quality 99.9 %
     Test CRC 2935D478
     Copy CRC 2935D478
     Track not present in AccurateRip database
     Copy OK
None of the tracks are present in the AccurateRip database
No errors occurred
End of status report
Код:
REM GENRE Electronic
REM DATE 2011
REM DISCID CB11020E
REM COMMENT "ExactAudioCopy v0.99pb5"
PERFORMER "Plasmodivm"
TITLE "The Post-Modern Prometheus"
FILE "01. Plasmodivm - I Have Killed A Man.wav" WAVE
  TRACK 01 AUDIO
    TITLE "I Have Killed A Man"
    PERFORMER "Plasmodivm"
    INDEX 01 00:00:00
FILE "02. Plasmodivm - Instinto Homicida.wav" WAVE
  TRACK 02 AUDIO
    TITLE "Instinto Homicida"
    PERFORMER "Plasmodivm"
    INDEX 01 00:00:00
FILE "03. Plasmodivm - Voices.wav" WAVE
  TRACK 03 AUDIO
    TITLE "Voices"
    PERFORMER "Plasmodivm"
    INDEX 01 00:00:00
FILE "04. Plasmodivm - Dead Inside.wav" WAVE
  TRACK 04 AUDIO
    TITLE "Dead Inside"
    PERFORMER "Plasmodivm"
    INDEX 01 00:00:00
FILE "05. Plasmodivm - Via Negativa.wav" WAVE
  TRACK 05 AUDIO
    TITLE "Via Negativa"
    PERFORMER "Plasmodivm"
    INDEX 01 00:00:00
FILE "06. Plasmodivm - Unbreakable Will.wav" WAVE
  TRACK 06 AUDIO
    TITLE "Unbreakable Will"
    PERFORMER "Plasmodivm"
    INDEX 01 00:00:00
FILE "07. Plasmodivm - Post-Modern , Post-Human.wav" WAVE
  TRACK 07 AUDIO
    TITLE "Post-Modern / Post-Human"
    PERFORMER "Plasmodivm"
    INDEX 01 00:00:00
FILE "08. Plasmodivm - The Beginning Of My End.wav" WAVE
  TRACK 08 AUDIO
    TITLE "The Beginning Of My End"
    PERFORMER "Plasmodivm"
    INDEX 01 00:00:00
FILE "09. Plasmodivm - The Fear Of Being Alive.wav" WAVE
  TRACK 09 AUDIO
    TITLE "The Fear Of Being Alive"
    PERFORMER "Plasmodivm"
    INDEX 01 00:00:00
FILE "10. Plasmodivm - High-Speed Collision.wav" WAVE
  TRACK 10 AUDIO
    TITLE "High-Speed Collision"
    PERFORMER "Plasmodivm"
    INDEX 01 00:00:00
FILE "11. Plasmodivm - Smashing White Pills.wav" WAVE
  TRACK 11 AUDIO
    TITLE "Smashing White Pills"
    PERFORMER "Plasmodivm"
    INDEX 01 00:00:00
FILE "12. Plasmodivm - A New Beginning.wav" WAVE
  TRACK 12 AUDIO
    TITLE "A New Beginning"
    PERFORMER "Plasmodivm"
    INDEX 01 00:00:00
FILE "13. Plasmodivm - Lost Dreams.wav" WAVE
  TRACK 13 AUDIO
    TITLE "Lost Dreams"
    PERFORMER "Plasmodivm"
    INDEX 01 00:00:00
FILE "14. Plasmodivm - Requiem (Missa Pro Defunctis).wav" WAVE
  TRACK 14 AUDIO
    TITLE "Requiem (Missa Pro Defunctis)"
    PERFORMER "Plasmodivm"
    INDEX 01 00:00:00
Код:
Начато: суббота, 27. 08. 2011. - 19:46.53
Найдено файлов: 14
01 -===- трек 1 в приводе PIONEER BD-RW   BDR-206M
  Трек успешно извлечён
  Заключение: этот трек - CDDA с вероятностью 100%
  Временный файл удалён.
02 -===- трек 2 в приводе PIONEER BD-RW   BDR-206M
  Трек успешно извлечён
  Заключение: этот трек - CDDA с вероятностью 100%
  Временный файл удалён.
03 -===- трек 3 в приводе PIONEER BD-RW   BDR-206M
  Трек успешно извлечён
  Заключение: этот трек - CDDA с вероятностью 100%
  Временный файл удалён.
04 -===- трек 4 в приводе PIONEER BD-RW   BDR-206M
  Трек успешно извлечён
  Заключение: этот трек - CDDA с вероятностью 100%
  Временный файл удалён.
05 -===- трек 5 в приводе PIONEER BD-RW   BDR-206M
  Трек успешно извлечён
  Заключение: этот трек - CDDA с вероятностью 99%
  Временный файл удалён.
06 -===- трек 6 в приводе PIONEER BD-RW   BDR-206M
  Трек успешно извлечён
  Заключение: этот трек - CDDA с вероятностью 100%
  Временный файл удалён.
07 -===- трек 7 в приводе PIONEER BD-RW   BDR-206M
  Трек успешно извлечён
  Заключение: этот трек - CDDA с вероятностью 100%
  Временный файл удалён.
08 -===- трек 8 в приводе PIONEER BD-RW   BDR-206M
  Трек успешно извлечён
  Заключение: этот трек - CDDA с вероятностью 100%
  Временный файл удалён.
09 -===- трек 9 в приводе PIONEER BD-RW   BDR-206M
  Трек успешно извлечён
  Заключение: этот трек - CDDA с вероятностью 100%
  Временный файл удалён.
10 -===- трек 10 в приводе PIONEER BD-RW   BDR-206M
  Трек успешно извлечён
  Заключение: этот трек - CDDA с вероятностью 100%
  Временный файл удалён.
11 -===- трек 11 в приводе PIONEER BD-RW   BDR-206M
  Трек успешно извлечён
  Заключение: этот трек - CDDA с вероятностью 100%
  Временный файл удалён.
12 -===- трек 12 в приводе PIONEER BD-RW   BDR-206M
  Трек успешно извлечён
  Заключение: этот трек - CDDA с вероятностью 100%
  Временный файл удалён.
13 -===- трек 13 в приводе PIONEER BD-RW   BDR-206M
  Трек успешно извлечён
  Заключение: этот трек - CDDA с вероятностью 99%
  Временный файл удалён.
14 -===- трек 14 в приводе PIONEER BD-RW   BDR-206M
  Трек успешно извлечён
  Заключение: этот трек - CDDA с вероятностью 100%
  Временный файл удалён.
Завершено: суббота, 27. 08. 2011. - 19:58.27 (Время операции: 0:11.33)
Добавлен альбом The Post-Modern Prometheus.
Добавлены сканы к The Post-Modern Prometheus (большое спасибо Serg 80!), просьба перекачать торрент файл.
Правила, инструкции, FAQ!!!
Торрент  Добавлен [26 июн 2020, 16:53] Скачать торрент Магнет ссылка
Скачать торрент
[ Размер 18.88 КБ / Просмотров 4 ]

Статус
Проверен 
 
Размер  1.22 ГБ
Приватный: Нет (DHT включён)
.torrent скачан  0
 


     Отправить личное сообщение
   
Страница 1 из 1
Показать сообщения за:  Поле сортировки  
Начать новую тему Ответить на тему


Сейчас этот форум просматривают: нет зарегистрированных пользователей и гости: 0


Вы не можете начинать темы
Вы не можете отвечать на сообщения
Вы не можете редактировать свои сообщения
Вы не можете удалять свои сообщения
Вы не можете добавлять вложения

Перейти:  
cron