Начать новую тему Ответить на тему
Статистика раздачи
Размер: 492.9 МБ | Добавлен: 26 июн 2020, 17:55 | Скачали: 0
Сидеров: 0  [0 байт/сек]    Личеров: 0  [0 байт/сек]
Пред. тема | След. тема 

Автор
Сообщение

СообщениеДобавлено: 26 июн 2020, 17:55 

Ответить с цитатой 

Pierrepoint / Deleted Tracks From Earth
Жанр: Electro, Industrial
Страна-производитель диска: Germany
Год издания диска: 2000
Издатель (лейбл): Pro Noize
Номер по каталогу: PN 006
Страна: Germany
Аудио кодек: FLAC (*.flac)
Тип рипа: image+.cue
Битрейт аудио: lossless
Продолжительность: 01:04:00
Источник (релизер): Личный диск
Наличие сканов в содержимом раздачи: да
Треклист:
01. Hoffnung Auf Die Wiederkehr 4:20
02. Perfect Society 3:47
03. Why Do ..? 3:53
04. Slaughter 4:11
05. Alive 5:18
06. Castigate 4:35
07. The Being 3:37
08. Idolized 3:28
09. Xenophop 2:29
10. Kim 4:58
11. Final Scan 3:16
12. Judas 5:32
13. ...Sie Sind Nicht Grün (Roswell-Mix) 4:10
14. Spacegod Killer 4:27
15. Nightchild 5:52
Код:
Exact Audio Copy V0.99 prebeta 5 from 4. May 2009
Отчёт EAC об извлечении, выполненном 29. января 2011, 19:46
Pierrepoint / Deleted Tracks From Earth
Дисковод: PIONEER DVD-RW DVRTD10RS   Adapter: 1  ID: 0
Режим чтения                 : Достоверность
Использование точного потока : Да
Отключение кэша аудио        : Да
Использование указателей C2  : Нет
Коррекция смещения при чтении                     : 6
Способность читать области Lead-in и Lead-out     : Нет
Заполнение пропущенных сэмплов тишиной            : Да
Удаление блоков с тишиной в начале и конце        : Нет
При вычислениях CRC использовались нулевые сэмплы : Да
Интерфейс                                         : Встроенный Win32-интерфейс для Win NT/2000
Выходной формат : Внутренние WAV-операции
Формат сэмплов  : 44.100 Гц; 16 бит; стерео
TOC извлечённого CD
     Трек |   Старт  | Длительность | Начальный сектор | Конечный сектор
    ---------------------------------------------------------------------
       1  |  0:00.00 |    4:20.56   |           0      |      19555
       2  |  4:20.56 |    3:47.11   |       19556      |      36591
       3  |  8:07.67 |    3:53.15   |       36592      |      54081
       4  | 12:01.07 |    4:11.43   |       54082      |      72949
       5  | 16:12.50 |    5:18.66   |       72950      |      96865
       6  | 21:31.41 |    4:35.72   |       96866      |     117562
       7  | 26:07.38 |    3:37.73   |      117563      |     133910
       8  | 29:45.36 |    3:28.49   |      133911      |     149559
       9  | 33:14.10 |    2:29.37   |      149560      |     160771
      10  | 35:43.47 |    4:58.11   |      160772      |     183132
      11  | 40:41.58 |    3:16.27   |      183133      |     197859
      12  | 43:58.10 |    5:32.26   |      197860      |     222785
      13  | 49:30.36 |    4:10.01   |      222786      |     241536
      14  | 53:40.37 |    4:27.28   |      241537      |     261589
      15  | 58:07.65 |    5:52.28   |      261590      |     288017
Характеристики диапазона извлечения и сообщения об ошибках
Выбранный диапазон
     Имя файла C:\Раздачи DEHUMANOID\Pierrepoint - Deleted Tracks From Earth\Pierrepoint - Deleted Tracks From Earth.wav
     Пиковый уровень 100.0 %
     Качество диапазона 100 %
     CRC теста C634A171
     CRC копии C634A171
     Копирование... OK
Ошибок не произошло
AccurateRip: сводка
Трек  1  точное извлечение (доверие 1)  [458531C8]
Трек  2  точное извлечение (доверие 1)  [C507E5C7]
Трек  3  точное извлечение (доверие 1)  [8429F90E]
Трек  4  точное извлечение (доверие 1)  [028FB4FA]
Трек  5  точное извлечение (доверие 1)  [DDFC88E8]
Трек  6  точное извлечение (доверие 1)  [BF3CAB35]
Трек  7  точное извлечение (доверие 1)  [BF47E4C9]
Трек  8  точное извлечение (доверие 1)  [BBE3FF08]
Трек  9  точное извлечение (доверие 1)  [93195AC5]
Трек 10  точное извлечение (доверие 1)  [215824BD]
Трек 11  точное извлечение (доверие 1)  [E5FB914E]
Трек 12  точное извлечение (доверие 1)  [B49D507D]
Трек 13  точное извлечение (доверие 1)  [78E8E4FE]
Трек 14  точное извлечение (доверие 1)  [AA9B4B1F]
Трек 15  точное извлечение (доверие 1)  [3A05528B]
Все треки извлечены точно
Конец отчёта
Код:
Started at: пятница, 04. 02. 2011. - 16:08.26
1 file found
1 -===- D:\Раздачи DEHUMANOID\Pierrepoint - Deleted Tracks From Earth\Pierrepoint - Deleted Tracks From Earth.flac
 Extracted successfully
  Conclusion: this track is CDDA with probability 100%
  Tempfile successfully deleted.
 Finished at: четверг, 04. 02. 2011. - 16:15.46 (operation time: 0:07.20)
Правила, инструкции, FAQ!!!
Торрент  Добавлен [26 июн 2020, 17:55] Скачать торрент Магнет ссылка
Скачать торрент
[ Размер 20.25 КБ / Просмотров 7 ]

Статус
Проверен 
 
Размер  492.9 МБ
Приватный: Нет (DHT включён)
.torrent скачан  0
 


     Отправить личное сообщение
   
Страница 1 из 1
Показать сообщения за:  Поле сортировки  
Начать новую тему Ответить на тему


Сейчас этот форум просматривают: нет зарегистрированных пользователей и гости: 0


Вы не можете начинать темы
Вы не можете отвечать на сообщения
Вы не можете редактировать свои сообщения
Вы не можете удалять свои сообщения
Вы не можете добавлять вложения

Перейти:  
cron