Начать новую тему Ответить на тему
Статистика раздачи
Размер: 505.36 МБ | Добавлен: 26 июн 2020, 16:55 | Скачали: 0
Сидеров: 0  [0 байт/сек]    Личеров: 0  [0 байт/сек]
Пред. тема | След. тема 

Автор
Сообщение

СообщениеДобавлено: 26 июн 2020, 16:55 

Ответить с цитатой 

Pail / Faith In The Void
Жанр: Electro, Industrial
Страна-производитель диска: Spain
Год издания диска: 2011
Издатель (лейбл): Caustic Records
Номер по каталогу: CRR030
Страна: Spain
Аудиокодек: FLAC (*.flac)
Тип рипа: image+.cue
Битрейт аудио: lossless
Продолжительность: 1:02:35.02
Источник (релизер): CD из личной коллекции.
Наличие сканов в содержимом раздачи: да
Треклист:
01. Burn Out System 6:23
02. Planet Prison 5:48
03. Global Dreams 6:05
04. Hyper Reality 6:36
05. Ingeneria Del Consentimiento 6:19
06. The First Words 6:18
07. Energy Bodies 4:23
08. Silence 7:06
09. Dignity Corrosion 6:50
10. Decadence By Design 6:48
Discogs
Рецензия
Код:
Exact Audio Copy V0.99 prebeta 5 from 4. May 2009
Отчёт EAC об извлечении, выполненном 9. октября 2011, 14:47
Pail / Faith in the Void
Дисковод: TSSTcorpCDDVDW TS-L632H   Adapter: 0  ID: 0
Режим чтения                 : Достоверность
Использование точного потока : Да
Отключение кэша аудио        : Да
Использование указателей C2  : Нет
Коррекция смещения при чтении                     : 6
Способность читать области Lead-in и Lead-out     : Нет
Заполнение пропущенных сэмплов тишиной            : Да
Удаление блоков с тишиной в начале и конце        : Нет
При вычислениях CRC использовались нулевые сэмплы : Да
Интерфейс                                         : Встроенный Win32-интерфейс для Win NT/2000
Выходной формат          : Пользовательский кодировщик
Выбранный битрейт        : 1024 kBit/s
Качество                 : Высокий
Добавление ID3-тэга      : Нет
Утилита сжатия           : C:\Program Files\Exact Audio Copy\FLAC\FLAC.EXE
Дополнительные параметры : -6 -V -T "ARTIST=%a" -T "TITLE=%t" -T "ALBUM=%g" -T "DATE=%y" -T "TRACKNUMBER=%n" -T "GENRE=%m" -T "COMMENT=%e" %s -o %d
TOC извлечённого CD
     Трек |   Старт  | Длительность | Начальный сектор | Конечный сектор
    ---------------------------------------------------------------------
       1  |  0:00.00 |    6:23.34   |           0      |      28758
       2  |  6:23.34 |    5:47.66   |       28759      |      54849
       3  | 12:11.25 |    6:05.13   |       54850      |      82237
       4  | 18:16.38 |    6:36.35   |       82238      |     111972
       5  | 24:52.73 |    6:18.46   |      111973      |     140368
       6  | 31:11.44 |    6:17.38   |      140369      |     168681
       7  | 37:29.07 |    4:22.68   |      168682      |     188399
       8  | 41:52.00 |    7:05.40   |      188400      |     220314
       9  | 48:57.40 |    6:49.61   |      220315      |     251050
      10  | 55:47.26 |    6:47.51   |      251051      |     281626
Характеристики диапазона извлечения и сообщения об ошибках
Выбранный диапазон
     Имя файла C:\Users\Алексей\Desktop\iPOD\Pail - Faith in the Void.wav
     Пиковый уровень 99.8 %
     Качество диапазона 100.0 %
     CRC теста 29C9F2F6
     CRC копии 29C9F2F6
     Копирование... OK
Ошибок не произошло
AccurateRip: сводка
Трек  1  нет в базе данных
Трек  2  нет в базе данных
Трек  3  нет в базе данных
Трек  4  нет в базе данных
Трек  5  нет в базе данных
Трек  6  нет в базе данных
Трек  7  нет в базе данных
Трек  8  нет в базе данных
Трек  9  нет в базе данных
Трек 10  нет в базе данных
Ни одного трека нет в базе AccurateRip
Конец отчёта
Код:
REM GENRE Industrial
REM DATE 2011
REM DISCID 960EAB0A
REM COMMENT "ExactAudioCopy v0.99pb5"
PERFORMER "Pail"
TITLE "Faith in the Void"
FILE "Pail - Faith in the Void.flac" WAVE
  TRACK 01 AUDIO
    TITLE "Burnt Out System"
    PERFORMER "Pail"
    INDEX 01 00:00:00
  TRACK 02 AUDIO
    TITLE "Planet Prison"
    PERFORMER "Pail"
    INDEX 01 06:23:34
  TRACK 03 AUDIO
    TITLE "Global Dreams"
    PERFORMER "Pail"
    INDEX 01 12:11:25
  TRACK 04 AUDIO
    TITLE "Hyper Reality"
    PERFORMER "Pail"
    INDEX 01 18:16:38
  TRACK 05 AUDIO
    TITLE "Ingenieria Del Consentimiento"
    PERFORMER "Pail"
    INDEX 01 24:52:73
  TRACK 06 AUDIO
    TITLE "The First Words"
    PERFORMER "Pail"
    INDEX 01 31:11:44
  TRACK 07 AUDIO
    TITLE "Energy Bodies"
    PERFORMER "Pail"
    INDEX 01 37:29:07
  TRACK 08 AUDIO
    TITLE "Silence"
    PERFORMER "Pail"
    INDEX 01 41:52:00
  TRACK 09 AUDIO
    TITLE "Dignity Corrosion"
    PERFORMER "Pail"
    INDEX 01 48:57:40
  TRACK 10 AUDIO
    TITLE "Decadence by Design"
    PERFORMER "Pail"
    INDEX 01 55:47:26
Код:
[url=https://fastpic.ru/view/27/2011/1113/8f0a8d240cbb00cfb45ae9a1cb89c864.jpg.html][img]http://i27.fastpic.ru/thumb/2011/1113/64/8f0a8d240cbb00cfb45ae9a1cb89c864.jpeg[/img][/url][url=https://fastpic.ru/view/29/2011/1113/a1a2316c5b407a979e9153cbd16b9485.jpg.html][img]http://i29.fastpic.ru/thumb/2011/1113/85/a1a2316c5b407a979e9153cbd16b9485.jpeg[/img][/url][url=https://fastpic.ru/view/32/2011/1113/886a16e8d722033e0c64c98c6db64f4b.jpg.html][img]http://i32.fastpic.ru/thumb/2011/1113/4b/886a16e8d722033e0c64c98c6db64f4b.jpeg[/img][/url][url=https://fastpic.ru/view/32/2011/1113/9ed361d1e3e14913db06370fc9807e09.jpg.html][img]http://i32.fastpic.ru/thumb/2011/1113/09/9ed361d1e3e14913db06370fc9807e09.jpeg[/img][/url]
Выражаю благодарность kergarn`у за HQ scans!
Правила, инструкции, FAQ!!!
Торрент  Добавлен [26 июн 2020, 16:55] Скачать торрент Магнет ссылка
Скачать торрент
[ Размер 21.16 КБ / Просмотров 4 ]

Статус
Проверен 
 
Размер  505.36 МБ
Приватный: Нет (DHT включён)
.torrent скачан  0
 


     Отправить личное сообщение
   
Страница 1 из 1
Показать сообщения за:  Поле сортировки  
Начать новую тему Ответить на тему


Сейчас этот форум просматривают: нет зарегистрированных пользователей и гости: 0


Вы не можете начинать темы
Вы не можете отвечать на сообщения
Вы не можете редактировать свои сообщения
Вы не можете удалять свои сообщения
Вы не можете добавлять вложения

Перейти:  
cron