Начать новую тему Ответить на тему
Статистика раздачи
Размер: 329.82 МБ | Добавлен: 26 июн 2020, 17:47 | Скачали: 0
Сидеров: 0  [0 байт/сек]    Личеров: 0  [0 байт/сек]
Пред. тема | След. тема 

Автор
Сообщение

СообщениеДобавлено: 26 июн 2020, 17:47 

Ответить с цитатой 

ohGr / Welt
Жанр: Electro, Industrial
Носитель: CD
Страна-производитель диска: US
Год издания: 2001
Издатель (лейбл): Spitfire Records
Номер по каталогу: SPT-15017-2
Страна: US
Аудиокодек: FLAC (*.flac)
Тип рипа: tracks+.cue
Битрейт аудио: lossless
Продолжительность: 44:09
Источник (релизер): waffles.fm
Наличие сканов в содержимом раздачи:
Треклист:
1 wateR 4:27
2 deviL 4:37
3 kettlE 3:50
4 earthworM 3:21
5 lusiD 3:50
6 porE 3:57
7 chaoS 4:08
8 crackeR 3:31
9 soloW 4:47
10 suhleap 3:16
11 minuS 4:19
Код:
Exact Audio Copy V0.99 prebeta 5 from 4. May 2009
EAC extraction logfile from 17. June 2010, 19:41
ohGr / Welt
Used drive  : HL-DT-STRW/DVD GCC-4247N   Adapter: 1  ID: 0
Read mode               : Secure
Utilize accurate stream : Yes
Defeat audio cache      : Yes
Make use of C2 pointers : No
Read offset correction                      : 102
Overread into Lead-In and Lead-Out          : No
Fill up missing offset samples with silence : Yes
Delete leading and trailing silent blocks   : No
Null samples used in CRC calculations       : Yes
Used interface                              : Native Win32 interface for Win NT & 2000
Gap handling                                : Appended to previous track
Used output format              : User Defined Encoder
Selected bitrate                : 320 kBit/s
Quality                         : High
Add ID3 tag                     : No
Command line compressor         : C:\Program Files\FLAC\flac.exe
Additional command line options : -V -8 -T "artist=%a" -T "title=%t" -T "album=%g" -T "date=%y" -T "tracknumber=%n" -T "genre=%m" %s
TOC of the extracted CD
     Track |   Start  |  Length  | Start sector | End sector
    ---------------------------------------------------------
        1  |  0:00.00 |  4:27.58 |         0    |    20082
        2  |  4:27.58 |  4:37.65 |     20083    |    40922
        3  |  9:05.48 |  3:50.44 |     40923    |    58216
        4  | 12:56.17 |  3:21.44 |     58217    |    73335
        5  | 16:17.61 |  3:50.51 |     73336    |    90636
        6  | 20:08.37 |  3:57.24 |     90637    |   108435
        7  | 24:05.61 |  4:08.44 |    108436    |   127079
        8  | 28:14.30 |  3:31.38 |    127080    |   142942
        9  | 31:45.68 |  4:47.24 |    142943    |   164491
       10  | 36:33.17 |  3:16.69 |    164492    |   179260
       11  | 39:50.11 |  4:19.60 |    179261    |   198745
Track  1
     Filename H:\ohGr - 2001 - Welt\01 - Water.wav
     Pre-gap length  0:00:02.00
     Peak level 94.4 %
     Track quality 100.0 %
     Test CRC 16D5F4F4
     Copy CRC 16D5F4F4
     Accurately ripped (confidence 29)  [7DC4AF92]
     Copy OK
Track  2
     Filename H:\ohGr - 2001 - Welt\02 - Devil.wav
     Pre-gap length  0:00:03.26
     Peak level 94.4 %
     Track quality 100.0 %
     Test CRC 435D393C
     Copy CRC 435D393C
     Accurately ripped (confidence 29)  [69961239]
     Copy OK
Track  3
     Filename H:\ohGr - 2001 - Welt\03 - Kettle.wav
     Pre-gap length  0:00:03.28
     Peak level 94.4 %
     Track quality 100.0 %
     Test CRC 54D48B82
     Copy CRC 54D48B82
     Accurately ripped (confidence 29)  [28E19251]
     Copy OK
Track  4
     Filename H:\ohGr - 2001 - Welt\04 - Earthworm.wav
     Pre-gap length  0:00:03.26
     Peak level 94.4 %
     Track quality 99.9 %
     Test CRC 8EAF1581
     Copy CRC 8EAF1581
     Accurately ripped (confidence 29)  [9045B42B]
     Copy OK
Track  5
     Filename H:\ohGr - 2001 - Welt\05 - Lusid.wav
     Pre-gap length  0:00:03.26
     Peak level 94.4 %
     Track quality 100.0 %
     Test CRC CF72EE2F
     Copy CRC CF72EE2F
     Accurately ripped (confidence 29)  [84F65BFC]
     Copy OK
Track  6
     Filename H:\ohGr - 2001 - Welt\06 - Pore.wav
     Pre-gap length  0:00:03.28
     Peak level 94.4 %
     Track quality 100.0 %
     Test CRC 92ECF4BE
     Copy CRC 92ECF4BE
     Accurately ripped (confidence 29)  [9FD02DDB]
     Copy OK
Track  7
     Filename H:\ohGr - 2001 - Welt\07 - Chaos.wav
     Pre-gap length  0:00:03.26
     Peak level 94.4 %
     Track quality 100.0 %
     Test CRC 73C43EFC
     Copy CRC 73C43EFC
     Accurately ripped (confidence 28)  [670B23D3]
     Copy OK
Track  8
     Filename H:\ohGr - 2001 - Welt\08 - Cracker.wav
     Pre-gap length  0:00:03.28
     Peak level 94.4 %
     Track quality 99.9 %
     Test CRC 12C20D74
     Copy CRC 12C20D74
     Accurately ripped (confidence 29)  [55F65067]
     Copy OK
Track  9
     Filename H:\ohGr - 2001 - Welt\09 - Solow.wav
     Pre-gap length  0:00:03.28
     Peak level 94.4 %
     Track quality 100.0 %
     Test CRC BB99E7F4
     Copy CRC BB99E7F4
     Accurately ripped (confidence 29)  [7F838418]
     Copy OK
Track 10
     Filename H:\ohGr - 2001 - Welt\10 - Suhleap.wav
     Pre-gap length  0:00:03.28
     Peak level 94.4 %
     Track quality 99.9 %
     Test CRC E7B03D53
     Copy CRC E7B03D53
     Accurately ripped (confidence 28)  [5115F244]
     Copy OK
Track 11
     Filename H:\ohGr - 2001 - Welt\11 - Minus.wav
     Pre-gap length  0:00:03.26
     Peak level 94.4 %
     Track quality 100.0 %
     Test CRC 59CC53D2
     Copy CRC 59CC53D2
     Accurately ripped (confidence 26)  [835CC3F1]
     Copy OK
All tracks accurately ripped
No errors occurred
End of status report
Код:
REM GENRE Industrial
REM DATE 2001
REM DISCID AE0A590B
REM COMMENT "ExactAudioCopy v0.99pb5"
PERFORMER "ohGr"
TITLE "Welt"
FILE "01 - Water.wav" WAVE
  TRACK 01 AUDIO
    TITLE "Water"
    PERFORMER "ohGr"
    INDEX 01 00:00:00
  TRACK 02 AUDIO
    TITLE "Devil"
    PERFORMER "ohGr"
    INDEX 00 04:24:38
FILE "02 - Devil.wav" WAVE
    INDEX 01 00:00:00
  TRACK 03 AUDIO
    TITLE "Kettle"
    PERFORMER "ohGr"
    INDEX 00 04:34:44
FILE "03 - Kettle.wav" WAVE
    INDEX 01 00:00:00
  TRACK 04 AUDIO
    TITLE "Earthworm"
    PERFORMER "ohGr"
    INDEX 00 03:47:24
FILE "04 - Earthworm.wav" WAVE
    INDEX 01 00:00:00
  TRACK 05 AUDIO
    TITLE "Lusid"
    PERFORMER "ohGr"
    INDEX 00 03:18:24
FILE "05 - Lusid.wav" WAVE
    INDEX 01 00:00:00
  TRACK 06 AUDIO
    TITLE "Pore"
    PERFORMER "ohGr"
    INDEX 00 03:47:30
FILE "06 - Pore.wav" WAVE
    INDEX 01 00:00:00
  TRACK 07 AUDIO
    TITLE "Chaos"
    PERFORMER "ohGr"
    INDEX 00 03:54:04
FILE "07 - Chaos.wav" WAVE
    INDEX 01 00:00:00
  TRACK 08 AUDIO
    TITLE "Cracker"
    PERFORMER "ohGr"
    INDEX 00 04:05:23
FILE "08 - Cracker.wav" WAVE
    INDEX 01 00:00:00
  TRACK 09 AUDIO
    TITLE "Solow"
    PERFORMER "ohGr"
    INDEX 00 03:28:17
FILE "09 - Solow.wav" WAVE
    INDEX 01 00:00:00
  TRACK 10 AUDIO
    TITLE "Suhleap"
    PERFORMER "ohGr"
    INDEX 00 04:44:03
FILE "10 - Suhleap.wav" WAVE
    INDEX 01 00:00:00
  TRACK 11 AUDIO
    TITLE "Minus"
    PERFORMER "ohGr"
    INDEX 00 03:13:49
FILE "11 - Minus.wav" WAVE
    INDEX 01 00:00:00
Код:
d:\>d:\aucdtect -d/-m0 d:\zzz\*.wav
auCDtect: CD records authenticity detector, version 0.8.2
Copyright (c) 2004 Oleg Berngardt. All rights reserved.
Copyright (c) 2004 Alexander Djourik. All rights reserved.
------------------------------------------------------------
Processing file: [01. Water.wav]
------------------------------------------------------------
This track looks like CDDA with probability 100%
------------------------------------------------------------
Processing file: [02. Devil.wav]
------------------------------------------------------------
This track looks like CDDA with probability 100%
------------------------------------------------------------
Processing file: [03. Kettle.wav]
------------------------------------------------------------
This track looks like CDDA with probability 100%
------------------------------------------------------------
Processing file: [04. Earthworm.wav]
------------------------------------------------------------
This track looks like CDDA with probability 100%
------------------------------------------------------------
Processing file: [05. Lusid.wav]
------------------------------------------------------------
This track looks like CDDA with probability 100%
------------------------------------------------------------
Processing file: [06. Pore.wav]
------------------------------------------------------------
This track looks like CDDA with probability 100%
------------------------------------------------------------
Processing file: [07. Chaos.wav]
------------------------------------------------------------
This track looks like CDDA with probability 99%
------------------------------------------------------------
Processing file: [08. Cracker.wav]
------------------------------------------------------------
This track looks like CDDA with probability 100%
------------------------------------------------------------
Processing file: [09. Solow.wav]
------------------------------------------------------------
This track looks like CDDA with probability 100%
------------------------------------------------------------
Processing file: [10. Suhleap.wav]
------------------------------------------------------------
This track looks like CDDA with probability 100%
------------------------------------------------------------
Processing file: [11. Minus.wav]
------------------------------------------------------------
This track looks like CDDA with probability 100%
------------------------------------------------------------
Final Conclusion:
------------------------------------------------------------
These tracks looks like CDDA with probability 100%
Доп. информация:
Lost in legal limbo since 1995 when it was originally recorded for Rick Rubin's American Recordings label, former Skinny Puppy frontman Nivek Ogre in conjunction with producer/programmer Mark Walk mix techno with modern rock, resulting in the group ohGr and this CD, Welt. A voice sounding like Pete Shelley of the Buzzcocks in some mad amalgam of Kraftwerk and Black Sabbath, Welt is abrasive, gruff, melodic, and dark. Opening with the trancey, dancey "Water," the industrial leanings of this duo are evident from the outset. On first listen the album blurs from one tune to the next, but after repeated spins, each song's identity becomes clearer. It is the nature of electronic music to confuse the senses -- Lou Reed's Metal Machine Music, released on CD by Buddah, is perhaps the best example of that, and though Welt is certainly more cohesive than Reed's wall of noise, this stuff can still pull you into a vacuum. Does the record work as a listening experience, or is it exclusively for dancefloors? That's the paradox of Welt. Borrowing a page from the Talking Heads' 1979 release, Fear of Music, where eight of the 11 selections had one-word titles, all 11 tracks here have minimal names. "Devil"'s Ozzy-type voice and riff collides with track three, Kettle's keyboard grunge sirens. A tentative machine-shop melody with clever twists and turns, the hook is one of the strongest on the record. This is dark, dirge-like material which would put the '80s band the Human League and their Martin Rushent production underwater, passing Marilyn Manson along the way. "Pore" has a lyric line much like the bubblegum hit from 1974 by Reunion, "Life Is a Rock But the Radio Rolled Me"; "Cracker" boasts the best hook on this record, the incessant "It's an original," followed by one of the more musical vignettes, "Solow." "Suhleap" follows and takes the album further into this dance underground where the keyboards become caustic, but not as difficult as the grand finale, track 11, "Minus," where the noise reaches an unbearable level with a riveting chorus, a constant and tough "We Will Rock You"-type anthem. There is something here, but the staccato sound is not for everyone.
Music By – Mark Walk, ohGr
Percussion [Additional] – William Rieflin (3)
Instruments [Additional Instrumentation] – Scott Crane, William Rieflin (6)
Правила, инструкции, FAQ!!!
Торрент  Добавлен [26 июн 2020, 17:47] Скачать торрент Магнет ссылка
Скачать торрент
[ Размер 14.34 КБ / Просмотров 10 ]

Статус
Проверен 
 
Размер  329.82 МБ
Приватный: Нет (DHT включён)
.torrent скачан  0
 


     Отправить личное сообщение
   
Страница 1 из 1
Показать сообщения за:  Поле сортировки  
Начать новую тему Ответить на тему


Сейчас этот форум просматривают: нет зарегистрированных пользователей и гости: 0


Вы не можете начинать темы
Вы не можете отвечать на сообщения
Вы не можете редактировать свои сообщения
Вы не можете удалять свои сообщения
Вы не можете добавлять вложения

Перейти:  
cron