Начать новую тему Ответить на тему
Статистика раздачи
Размер: 426.35 МБ | Добавлен: 26 июн 2020, 16:56 | Скачали: 0
Сидеров: 0  [0 байт/сек]    Личеров: 0  [0 байт/сек]
Пред. тема | След. тема 

Автор
Сообщение

СообщениеДобавлено: 26 июн 2020, 16:56 

Ответить с цитатой 

Object - The Reflecting Skin
Жанр: Electro, Industrial
Год выпуска диска: 2003
Производитель диска: Germany
Аудио кодек: FLAC
Тип рипа: tracks+.cue
Битрейт аудио: lossless
Трэклист:
1 Blood Patch (4:13)
2 Innocent & Intricate (5:55)
3 That Terrific Truth (6:03)
4 Defiance (5:01)
5 Maggot Section (4:34)
6 Rapid Decline (4:22)
7 Seconds (6:54)
8 Synergy Novel 2002 (5:14)
9 The Reflecting Skin (5:18)
10 Nemesys (4:32)
11 Blood Patch (Decoded Soul Remix By MC1R) (6:34)
Remix - MC1R
12 Blood Patch (Tri-State Remix) (5:01)
Remix - Tri-State
Код:
Exact Audio Copy V0.99 prebeta 4 from 23. January 2008
EAC extraction logfile from 16. April 2008, 20:07
Object / The Reflecting Skin
Used drive  : SONY    DVD RW AW-Q170A   Adapter: 0  ID: 0
Read mode               : Secure
Utilize accurate stream : Yes
Defeat audio cache      : Yes
Make use of C2 pointers : No
Read offset correction                      : 48
Overread into Lead-In and Lead-Out          : No
Fill up missing offset samples with silence : Yes
Delete leading and trailing silent blocks   : No
Null samples used in CRC calculations       : Yes
Used interface                              : Native Win32 interface for Win NT & 2000
Gap handling                                : Appended to previous track
Used output format              : User Defined Encoder
Selected bitrate                : 192 kBit/s
Quality                         : High
Add ID3 tag                     : No
Command line compressor         : C:\Program Files\flac-1.1.4-win\bin\flac.exe
Additional command line options : -8 -A tukey(0.25) -A gauss(0.1875) -b 4096 -V -T "artist=%a" -T "title=%t" -T "album=%g" -T "date=%y" -T "tracknumber=%n" -T "genre=%m" %s --sector-align
TOC of the extracted CD
     Track |   Start  |  Length  | Start sector | End sector
    ---------------------------------------------------------
        1  |  0:00.00 |  4:07.03 |         0    |    18527
        2  |  4:07.03 |  5:47.03 |     18528    |    44555
        3  |  9:54.06 |  5:58.02 |     44556    |    71407
        4  | 15:52.08 |  4:54.02 |     71408    |    93459
        5  | 20:46.10 |  4:25.02 |     93460    |   113336
        6  | 25:11.12 |  4:15.00 |    113337    |   132461
        7  | 29:26.12 |  6:46.09 |    132462    |   162920
        8  | 36:12.21 |  5:08.02 |    162921    |   186022
        9  | 41:20.23 |  5:07.00 |    186023    |   209047
       10  | 46:27.23 |  4:26.03 |    209048    |   229000
       11  | 50:53.26 |  6:31.15 |    229001    |   258340
       12  | 57:24.41 |  4:55.02 |    258341    |   280467
Track  1
     Filename Y:\The Reflecting Skin\01 - Blood Patch.wav
     Pre-gap length  0:00:02.00
     Peak level 100.0 %
     Track quality 99.9 %
     Test CRC E84061E0
     Copy CRC E84061E0
     Track not present in AccurateRip database
     Copy OK
Track  2
     Filename Y:\The Reflecting Skin\02 - Innocent & Intricate.wav
     Pre-gap length  0:00:00.01
     Peak level 100.0 %
     Track quality 99.5 %
     Test CRC A335161D
     Copy CRC A335161D
     Track not present in AccurateRip database
     Copy OK
Track  3
     Filename Y:\The Reflecting Skin\03 - That Terrific Truth.wav
     Peak level 100.0 %
     Track quality 100.0 %
     Test CRC A8508FAC
     Copy CRC A8508FAC
     Track not present in AccurateRip database
     Copy OK
Track  4
     Filename Y:\The Reflecting Skin\04 - Defiance.wav
     Peak level 100.0 %
     Track quality 99.9 %
     Test CRC B2340EBD
     Copy CRC B2340EBD
     Track not present in AccurateRip database
     Copy OK
Track  5
     Filename Y:\The Reflecting Skin\05 - Maggot Section.wav
     Pre-gap length  0:00:00.01
     Peak level 100.0 %
     Track quality 100.0 %
     Test CRC 3A77B398
     Copy CRC 3A77B398
     Track not present in AccurateRip database
     Copy OK
Track  6
     Filename Y:\The Reflecting Skin\06 - Rapid Decline.wav
     Peak level 100.0 %
     Track quality 99.9 %
     Test CRC 724FD861
     Copy CRC 724FD861
     Track not present in AccurateRip database
     Copy OK
Track  7
     Filename Y:\The Reflecting Skin\07 - Seconds.wav
     Peak level 100.0 %
     Track quality 99.9 %
     Test CRC D6E4086D
     Copy CRC D6E4086D
     Track not present in AccurateRip database
     Copy OK
Track  8
     Filename Y:\The Reflecting Skin\08 - Synergy Novel 2002.wav
     Pre-gap length  0:00:00.01
     Peak level 100.0 %
     Track quality 100.0 %
     Test CRC D5CE9CC2
     Copy CRC D5CE9CC2
     Track not present in AccurateRip database
     Copy OK
Track  9
     Filename Y:\The Reflecting Skin\09 - The Reflecting Skin.wav
     Peak level 100.0 %
     Track quality 100.0 %
     Test CRC B83C6885
     Copy CRC B83C6885
     Track not present in AccurateRip database
     Copy OK
Track 10
     Filename Y:\The Reflecting Skin\10 - Nemesys.wav
     Peak level 100.0 %
     Track quality 100.0 %
     Test CRC 769408C5
     Copy CRC 769408C5
     Track not present in AccurateRip database
     Copy OK
Track 11
     Filename Y:\The Reflecting Skin\11 - Blood Patch (Decoded Soul Remix by MC1R).wav
     Peak level 100.0 %
     Track quality 99.7 %
     Test CRC CEAD94F4
     Copy CRC CEAD94F4
     Track not present in AccurateRip database
     Copy OK
Track 12
     Filename Y:\The Reflecting Skin\12 - Blood Patch (Tri-state Remix).wav
     Peak level 62.8 %
     Track quality 100.0 %
     Test CRC 0BC944F9
     Copy CRC 0BC944F9
     Track not present in AccurateRip database
     Copy OK
None of the tracks are present in the AccurateRip database
No errors occurred
End of status report
Правила, инструкции, FAQ!!!
Торрент  Добавлен [26 июн 2020, 16:56] Скачать торрент Магнет ссылка
Скачать торрент
[ Размер 34.55 КБ / Просмотров 3 ]

Статус
Проверен 
 
Размер  426.35 МБ
Приватный: Нет (DHT включён)
.torrent скачан  0
 


     Отправить личное сообщение
   
Страница 1 из 1
Показать сообщения за:  Поле сортировки  
Начать новую тему Ответить на тему


Сейчас этот форум просматривают: нет зарегистрированных пользователей и гости: 0


Вы не можете начинать темы
Вы не можете отвечать на сообщения
Вы не можете редактировать свои сообщения
Вы не можете удалять свои сообщения
Вы не можете добавлять вложения

Перейти:  
cron