Начать новую тему Ответить на тему
Статистика раздачи
Размер: 417.79 МБ | Добавлен: 26 июн 2020, 20:44 | Скачали: 1
Сидеров: 147  [0 байт/сек]    Личеров: 1  [0 байт/сек]
Пред. тема | След. тема 

Автор
Сообщение

СообщениеДобавлено: 26 июн 2020, 20:44 

Ответить с цитатой 

NKVD - Prolog
Страна: France
Жанр: Electro, Industrial
Год выпуска: 1998
Формат: FLAC (tracks+.cue)
Битрейт аудио: lossless
Продолжительность: 56:24
Трэклист:
1 Timescape (4:49)
2 Barbarians (4:57)
3 Destruktion (4:01)
4 Acceleration (5:21)
5 Psykoz Part (4:58)
6 Mikrometrik (5:00)
7 Raw (15:35)
8 Psykoz Part (11:42)
Доп. информация:
Label: Not On Label
Catalog#: NKVD 01
Credits: Programmed By, Electronics [Sound Design] - Jérôme Schmitt; Vocals [Barbarian Chant], Programmed By, Electronics [Sound Design] - Rémy Pelleschi; Written-By - NKVD
Notes: Recorded and mixed at Millenium Studio, Nice, France.
First edition
Код:
Exact Audio Copy V0.99 prebeta 4 from 23. January 2008
EAC extraction logfile from 1. May 2009, 23:00
NKVD / Prolog
Used drive  : TEAC    CD-W540E   Adapter: 3  ID: 0
Read mode               : Secure
Utilize accurate stream : Yes
Defeat audio cache      : Yes
Make use of C2 pointers : No
Read offset correction                      : 686
Overread into Lead-In and Lead-Out          : No
Fill up missing offset samples with silence : Yes
Delete leading and trailing silent blocks   : No
Null samples used in CRC calculations       : Yes
Used interface                              : Installed external ASPI interface
Gap handling                                : Appended to previous track
Used output format              : User Defined Encoder
Selected bitrate                : 1024 kBit/s
Quality                         : High
Add ID3 tag                     : No
Command line compressor         : D:\Programs\Tools\_Exact Audio Copy\FLAC\FLAC.EXE
Additional command line options : -8 -V -T "ARTIST=%a" -T "TITLE=%t" -T "ALBUM=%g" -T "DATE=%y" -T "TRACKNUMBER=%n" -T "GENRE=%m" -T "COMMENT=%e" %s -o %d
TOC of the extracted CD
     Track |   Start  |  Length  | Start sector | End sector
    ---------------------------------------------------------
        1  |  0:00.00 |  4:49.14 |         0    |    21688
        2  |  4:49.14 |  4:57.00 |     21689    |    43963
        3  |  9:46.14 |  4:01.31 |     43964    |    62069
        4  | 13:47.45 |  5:21.02 |     62070    |    86146
        5  | 19:08.47 |  4:57.44 |     86147    |   108465
        6  | 24:06.16 |  4:59.74 |    108466    |   130964
        7  | 29:06.15 | 15:35.32 |    130965    |   201121
        8  | 44:41.47 | 11:42.01 |    201122    |   253772
Track  1
     Filename G:\EAC Temporare\01 Timescape.wav
     Pre-gap length  0:00:02.00
     Peak level 97.6 %
     Track quality 100.0 %
     Test CRC FE3FA4BB
     Copy CRC FE3FA4BB
     Cannot be verified as accurate (confidence 3)  [9284948C], AccurateRip returned [1ACE9027]
     Copy OK
Track  2
     Filename G:\EAC Temporare\02 Barbarians.wav
     Peak level 97.6 %
     Track quality 100.0 %
     Test CRC 21F53694
     Copy CRC 21F53694
     Cannot be verified as accurate (confidence 2)  [EE89AA0D], AccurateRip returned [A11F650D]
     Copy OK
Track  3
     Filename G:\EAC Temporare\03 Destruction.wav
     Peak level 97.6 %
     Track quality 99.9 %
     Test CRC 1E81069D
     Copy CRC 1E81069D
     Cannot be verified as accurate (confidence 3)  [79F3F7AC], AccurateRip returned [243A1362]
     Copy OK
Track  4
     Filename G:\EAC Temporare\04 Acceleration.wav
     Pre-gap length  0:00:01.00
     Peak level 97.6 %
     Track quality 100.0 %
     Test CRC 2954D88A
     Copy CRC 2954D88A
     Cannot be verified as accurate (confidence 2)  [8DEF17AA], AccurateRip returned [9EC21614]
     Copy OK
Track  5
     Filename G:\EAC Temporare\05 Psykoz (Part 1).wav
     Peak level 97.6 %
     Track quality 100.0 %
     Test CRC BD85CF22
     Copy CRC BD85CF22
     Cannot be verified as accurate (confidence 3)  [05B6AF18], AccurateRip returned [809F19B6]
     Copy OK
Track  6
     Filename G:\EAC Temporare\06 Mikrometrik.wav
     Peak level 97.6 %
     Track quality 100.0 %
     Test CRC 172092DA
     Copy CRC 172092DA
     Cannot be verified as accurate (confidence 3)  [8EB75FCD], AccurateRip returned [22F062FE]
     Copy OK
Track  7
     Filename G:\EAC Temporare\07 Raw.wav
     Peak level 97.6 %
     Track quality 99.9 %
     Test CRC F7F3D1CB
     Copy CRC F7F3D1CB
     Cannot be verified as accurate (confidence 3)  [18B18A97], AccurateRip returned [E26AE1D2]
     Copy OK
Track  8
     Filename G:\EAC Temporare\08 Psykoz (Part 2).wav
     Peak level 86.9 %
     Track quality 99.9 %
     Test CRC 338E833D
     Copy CRC 338E833D
     Cannot be verified as accurate (confidence 3)  [E76E7A77], AccurateRip returned [82979433]
     Copy OK
No tracks could be verified as accurate
You may have a different pressing from the one(s) in the database
No errors occurred
End of status report
Зарелизено на rutracker.org

на раздаче ВСЕГДА в нерабочее время (вечер, ночь, выходные), в остальное время как получится
Правила, инструкции, FAQ!!!
Торрент  Добавлен [26 июн 2020, 20:44] Скачать торрент Магнет ссылка
Скачать торрент
[ Размер 17.88 КБ / Просмотров 10 ]

Статус
Проверен 
 
Размер  417.79 МБ
Приватный: Нет (DHT включён)
.torrent скачан  1
 


     Отправить личное сообщение
   
Страница 1 из 1
Показать сообщения за:  Поле сортировки  
Начать новую тему Ответить на тему


Сейчас этот форум просматривают: нет зарегистрированных пользователей и гости: 0


Вы не можете начинать темы
Вы не можете отвечать на сообщения
Вы не можете редактировать свои сообщения
Вы не можете удалять свои сообщения
Вы не можете добавлять вложения

Перейти:  
cron