Начать новую тему Ответить на тему
Статистика раздачи
Размер: 454.95 МБ | Добавлен: 26 июн 2020, 17:32 | Скачали: 0
Сидеров: 0  [0 байт/сек]    Личеров: 0  [0 байт/сек]
Пред. тема | След. тема 

Автор
Сообщение

СообщениеДобавлено: 26 июн 2020, 17:32 

Ответить с цитатой 

Netz / Werk 04. Exit Märchenland
Жанр: electro industrial
Страна-производитель диска: Germany
Год издания: 2012
Издатель (лейбл): Sonic-X
Номер по каталогу: SONX023
Аудиокодек: FLAC (*.flac)
Тип рипа: image+.cue
Битрейт аудио: lossless
Продолжительность: 1:01:30.00
Источник (релизер): Рип с оригинала
Наличие сканов в содержимом раздачи: да
Треклист:
01. Metropolis [4:41]
02. Exit Märchenland (Bionik) [4:53]
03. Szell [4:11]
04. Hey Sam [3:56]
05. Emotionsmaschine [5:08]
06. Die Blechtrommel [4:54]
07. Clockwork Orange [3:19]
08. War Of The Worlds [4:42]
09. Love Story [4:52]
10. Dune 2k12 [4:24]
11. Der Menschenfeind [6:08]
12. Exit Märchenland (Mechanik) [5:54]
13. Germany Calling (Mirrored) [4:28]
Код:
Exact Audio Copy V0.99 prebeta 5 from 4. May 2009
Отчёт EAC об извлечении, выполненном 26. марта 2012, 12:12
Netz / Werk 04. Exit Marchenland
Дисковод: _NEC    DVD_RW ND-3520A   Adapter: 0  ID: 1
Режим чтения                 : Достоверность
Использование точного потока : Да
Отключение кэша аудио        : Да
Использование указателей C2  : Нет
Коррекция смещения при чтении                     : 48
Способность читать области Lead-in и Lead-out     : Нет
Заполнение пропущенных сэмплов тишиной            : Да
Удаление блоков с тишиной в начале и конце        : Нет
При вычислениях CRC использовались нулевые сэмплы : Да
Интерфейс                                         : Установленный внешний ASPI-интерфейс
Выходной формат          : Пользовательский кодировщик
Выбранный битрейт        : 1024 kBit/s
Качество                 : Высокий
Добавление ID3-тэга      : Нет
Утилита сжатия           : C:\Program Files\Exact Audio Copy\flac.exe
Дополнительные параметры : -6 -V -T "ARTIST=%a" -T "TITLE=%t" -T "ALBUM=%g" -T "DATE=%y" -T "TRACKNUMBER=%n" -T "GENRE=%m" -T "COMMENT=%e" %s -o %d
TOC извлечённого CD
     Трек |   Старт  | Длительность | Начальный сектор | Конечный сектор
    ---------------------------------------------------------------------
       1  |  0:00.00 |    4:40.58   |           0      |      21057
       2  |  4:40.58 |    4:52.53   |       21058      |      43010
       3  |  9:33.36 |    4:11.07   |       43011      |      61842
       4  | 13:44.43 |    3:56.31   |       61843      |      79573
       5  | 17:40.74 |    5:07.70   |       79574      |     102668
       6  | 22:48.69 |    4:54.06   |      102669      |     124724
       7  | 27:43.00 |    3:18.56   |      124725      |     139630
       8  | 31:01.56 |    4:42.19   |      139631      |     160799
       9  | 35:44.00 |    4:51.52   |      160800      |     182676
      10  | 40:35.52 |    4:23.53   |      182677      |     202454
      11  | 44:59.30 |    6:08.01   |      202455      |     230055
      12  | 51:07.31 |    5:54.35   |      230056      |     256640
      13  | 57:01.66 |    4:28.09   |      256641      |     276749
Характеристики диапазона извлечения и сообщения об ошибках
Выбранный диапазон
     Имя файла O:\На трекер\Netz - Werk 04. Exit Marchenland.wav
     Пиковый уровень 100.0 %
     Качество диапазона 100.0 %
     CRC теста 79C7FD5B
     CRC копии 79C7FD5B
     Копирование... OK
Ошибок не произошло
AccurateRip: сводка
Трек  1  нет в базе данных
Трек  2  нет в базе данных
Трек  3  нет в базе данных
Трек  4  нет в базе данных
Трек  5  нет в базе данных
Трек  6  нет в базе данных
Трек  7  нет в базе данных
Трек  8  нет в базе данных
Трек  9  нет в базе данных
Трек 10  нет в базе данных
Трек 11  нет в базе данных
Трек 12  нет в базе данных
Трек 13  нет в базе данных
Ни одного трека нет в базе AccurateRip
Конец отчёта
Правила, инструкции, FAQ!!!
Торрент  Добавлен [26 июн 2020, 17:32] Скачать торрент Магнет ссылка
Скачать торрент
[ Размер 19.03 КБ / Просмотров 10 ]

Статус
Проверен 
 
Размер  454.95 МБ
Приватный: Нет (DHT включён)
.torrent скачан  0
 


     Отправить личное сообщение
   
Страница 1 из 1
Показать сообщения за:  Поле сортировки  
Начать новую тему Ответить на тему


Сейчас этот форум просматривают: нет зарегистрированных пользователей и гости: 0


Вы не можете начинать темы
Вы не можете отвечать на сообщения
Вы не можете редактировать свои сообщения
Вы не можете удалять свои сообщения
Вы не можете добавлять вложения

Перейти:  
cron