Начать новую тему Ответить на тему
Статистика раздачи
Размер: 492.95 МБ | Добавлен: 26 июн 2020, 17:03 | Скачали: 0
Сидеров: 0  [0 байт/сек]    Личеров: 0  [0 байт/сек]
Пред. тема | След. тема 

Автор
Сообщение

СообщениеДобавлено: 26 июн 2020, 17:03 

Ответить с цитатой 

Mindless Faith - Medication For The Misinformed
Жанр: Electro/Industrial
Год: 2007
Страна: USA. Dependent Records
Производитель диска: Россия, Союз 2008
Аудио кодек: FLAC
Тип рипа: tracks+.cue
Битрейт аудио: lossless
Продолжительность: 56:44
Источник: Саморип с союзолицензии
Трэклист:
1. Bound (5:38)
2. A Blind Spot In Every Eye (3:55)
3. I'm Pretty Much Fucked (5:12)
4. The Dust Of Centuries (3:54)
5. Red Lines (3:52)
6. Darkhall (4:51)
7. Another Empire Falls (2:26)
8. Down Here (6:40)
9. Tell (4:54)
10. The World Behind The World (3:55)
11. Independence Day (5:09)
12. Bullet (6:18)
Доп. информация:
Код:
Exact Audio Copy V0.99 prebeta 4 from 23. January 2008
EAC extraction logfile from 17. September 2008, 22:08
Mindless Faith / Medication For The Misinformed
Used drive  : PIONEER DVD-RW  DVR-212   Adapter: 5  ID: 0
Read mode               : Secure
Utilize accurate stream : Yes
Defeat audio cache      : Yes
Make use of C2 pointers : No
Read offset correction                      : 48
Overread into Lead-In and Lead-Out          : No
Fill up missing offset samples with silence : Yes
Delete leading and trailing silent blocks   : No
Null samples used in CRC calculations       : Yes
Used interface                              : Native Win32 interface for Win NT & 2000
Used output format : Internal WAV Routines
Sample format      : 44.100 Hz; 16 Bit; Stereo
TOC of the extracted CD
     Track |   Start  |  Length  | Start sector | End sector
    ---------------------------------------------------------
        1  |  0:00.00 |  5:38.21 |         0    |    25370
        2  |  5:38.21 |  3:55.35 |     25371    |    43030
        3  |  9:33.56 |  5:12.40 |     43031    |    66470
        4  | 14:46.21 |  3:54.26 |     66471    |    84046
        5  | 18:40.47 |  3:52.33 |     84047    |   101479
        6  | 22:33.05 |  4:51.36 |    101480    |   123340
        7  | 27:24.41 |  2:26.26 |    123341    |   134316
        8  | 29:50.67 |  6:40.03 |    134317    |   164319
        9  | 36:30.70 |  4:54.19 |    164320    |   186388
       10  | 41:25.14 |  3:55.66 |    186389    |   204079
       11  | 45:21.05 |  5:09.07 |    204080    |   227261
       12  | 50:30.12 |  6:18.68 |    227262    |   255679
Range status and errors
Selected range
     Filename C:\Documents and Settings\hiekka\Рабочий стол\eac rips\Mindless Faith - Medication For The Misinformed.wav
     Peak level 100.0 %
     Range quality 100.0 %
     Test CRC 610A7654
     Copy CRC 610A7654
     Copy OK
No errors occurred
AccurateRip summary
Track  1  not present in database
Track  2  not present in database
Track  3  not present in database
Track  4  not present in database
Track  5  not present in database
Track  6  not present in database
Track  7  not present in database
Track  8  not present in database
Track  9  not present in database
Track 10  not present in database
Track 11  not present in database
Track 12  not present in database
None of the tracks are present in the AccurateRip database
End of status report
Американское Elektro/Industrial трио MINDLESS FAITH представляет "Medication For The Misinformed" (2007), свою очередную смертельную дозу мрачной электроники и индастриала. Футуристические образы грядущего общественного апокалипсиса сплавлены с элементами ambient и trance в завораживающий индустриальный микс из шума, искаженных синтезаторов и абразивных гитар. Несомненно, этот диск является выдающейся работой, которую надо слушать от начала и до конца. (стырено с soundcheck.ru)
От себя - диск наидобротнейший
http://www.discogs.com/release/1406124
http://www.mindlessfaith.com/
http://www.myspace.com/mindlessfaith
Правила, инструкции, FAQ!!!
Торрент  Добавлен [26 июн 2020, 17:03] Скачать торрент Магнет ссылка
Скачать торрент
[ Размер 20.71 КБ / Просмотров 3 ]

Статус
Проверен 
 
Размер  492.95 МБ
Приватный: Нет (DHT включён)
.torrent скачан  0
 


     Отправить личное сообщение
   
Страница 1 из 1
Показать сообщения за:  Поле сортировки  
Начать новую тему Ответить на тему


Сейчас этот форум просматривают: нет зарегистрированных пользователей и гости: 0


Вы не можете начинать темы
Вы не можете отвечать на сообщения
Вы не можете редактировать свои сообщения
Вы не можете удалять свои сообщения
Вы не можете добавлять вложения

Перейти:  
cron