Начать новую тему Ответить на тему
Статистика раздачи
Размер: 407.78 МБ | Добавлен: 26 июн 2020, 19:47 | Скачали: 0
Сидеров: 0  [0 байт/сек]    Личеров: 0  [0 байт/сек]
Пред. тема | След. тема 

Автор
Сообщение

СообщениеДобавлено: 26 июн 2020, 19:47 

Ответить с цитатой 

Mindless Faith / Just Defy
Жанр: Electro-Industrial
Страна-производитель диска: USA
Год издания: 2012
Издатель (лейбл): AlterCulture Records
Номер по каталогу: ACR 014
Страна: USA
Аудиокодек: FLAC (*.flac)
Тип рипа: image+.cue
Битрейт аудио: lossless
Продолжительность: 0:53:00.19
Источник (релизер): CD из личной коллекции.
Наличие сканов в содержимом раздачи: да
Треклист:
01. The Thirst 5:02
02. Love Is A Dirty Word 5:35
03. Next To Last 5:53
04. Over The Fence 5:35
05. Corporatism 5:14
06. No Saints Allowed 4:57
07. Mutually Assured Destruction 4:06
08. Indiscriminate Force 2:04
09. You Don't Know 4:34
10. Undone 5:17
11. Vultures (Let Us Prey Mix) 4:45
Discogs
Код:
Exact Audio Copy V1.0 beta 3 from 29. August 2011
Отчёт EAC об извлечении, выполненном 1. апреля 2012, 18:43
Mindless Faith / Just Defy
Дисковод: hp      DVD-RAM UJ8B1   Adapter: 0  ID: 2
Режим чтения                 : Достоверность
Использование точного потока : Да
Отключение кэша аудио        : Да
Использование указателей C2  : Нет
Коррекция смещения при чтении                     : 6
Способность читать области Lead-in и Lead-out     : Нет
Заполнение пропущенных сэмплов тишиной            : Да
Удаление блоков с тишиной в начале и конце        : Нет
При вычислениях CRC использовались нулевые сэмплы : Да
Интерфейс                                         : Встроенный Win32-интерфейс для Win NT/2000
Выходной формат          : Пользовательский кодировщик
Выбранный битрейт        : 1024 kBit/s
Качество                 : Высокий
Добавление ID3-тега      : Нет
Утилита сжатия           : C:\Program Files (x86)\Exact Audio Copy\FLAC\FLAC.EXE
Дополнительные параметры : -6 -V -T "ARTIST=%artist%" -T "TITLE=%title%" -T "ALBUM=%albumtitle%" -T "DATE=%year%" -T "TRACKNUMBER=%tracknr%" -T "GENRE=%genre%" -T "COMMENT=%comment%" -T "BAND=%albuminterpret%" -T "ALBUMARTIST=%albuminterpret%" -T "COMPOSER=%composer%" %haslyrics%--tag-from-file=LYRICS="%lyricsfile%"%haslyrics% -T "DISCNUMBER=%cdnumber%" -T "TOTALDISCS=%totalcds%" -T "TOTALTRACKS=%numtracks%" %hascover%--picture="%coverfile%"%hascover% %source% -o %dest%
TOC извлечённого CD
     Трек |   Старт  | Длительность | Начальный сектор | Конечный сектор
    ---------------------------------------------------------------------
       1  |  0:00.00 |    5:01.59   |           0      |      22633
       2  |  5:01.59 |    5:35.31   |       22634      |      47789
       3  | 10:37.15 |    5:52.38   |       47790      |      74227
       4  | 16:29.53 |    5:34.41   |       74228      |      99318
       5  | 22:04.19 |    5:13.46   |       99319      |     122839
       6  | 27:17.65 |    4:57.30   |      122840      |     145144
       7  | 32:15.20 |    4:05.58   |      145145      |     163577
       8  | 36:21.03 |    2:03.48   |      163578      |     172850
       9  | 38:24.51 |    4:33.59   |      172851      |     193384
      10  | 42:58.35 |    5:17.11   |      193385      |     217170
      11  | 48:15.46 |    4:44.48   |      217171      |     238518
Характеристики диапазона извлечения и сообщения об ошибках
Выбранный диапазон
     Имя файла C:\Users\HP\Music\Mindless Faith - Just Defy.wav
     Пиковый уровень 98.5 %
     Скорость извлечения 4.6 X
     Качество диапазона 99.9 %
     CRC теста 37E275D0
     CRC копии 37E275D0
     Копирование... OK
Ошибок не произошло
AccurateRip: сводка
Трек  1  отсутствует в базе данных
Трек  2  отсутствует в базе данных
Трек  3  отсутствует в базе данных
Трек  4  отсутствует в базе данных
Трек  5  отсутствует в базе данных
Трек  6  отсутствует в базе данных
Трек  7  отсутствует в базе данных
Трек  8  отсутствует в базе данных
Трек  9  отсутствует в базе данных
Трек 10  отсутствует в базе данных
Трек 11  отсутствует в базе данных
Ни одного трека нет в базе AccurateRip
Конец отчёта
==== Контрольная сумма отчёта 0E57DFA095DF2BCCDAFFEC1F2C4D5B4F43E161D610158D9C8B9CD51D30186E22 ====
Код:
REM GENRE Industrial
REM DATE 2012
REM DISCID A20C6C0B
REM COMMENT "ExactAudioCopy v1.0b3"
PERFORMER "Mindless Faith"
TITLE "Just Defy"
FILE "Mindless Faith - Just Defy.flac" WAVE
  TRACK 01 AUDIO
    TITLE "The Thirst"
    PERFORMER "Mindless Faith"
    INDEX 01 00:00:00
  TRACK 02 AUDIO
    TITLE "Love Is A Dirty Word"
    PERFORMER "Mindless Faith"
    INDEX 01 05:01:59
  TRACK 03 AUDIO
    TITLE "Next To Last"
    PERFORMER "Mindless Faith"
    INDEX 01 10:37:15
  TRACK 04 AUDIO
    TITLE "Over The Fence"
    PERFORMER "Mindless Faith"
    INDEX 01 16:29:53
  TRACK 05 AUDIO
    TITLE "Corporatism"
    PERFORMER "Mindless Faith"
    INDEX 01 22:04:19
  TRACK 06 AUDIO
    TITLE "No Saints Allowed"
    PERFORMER "Mindless Faith"
    INDEX 01 27:17:65
  TRACK 07 AUDIO
    TITLE "Mutually Assured Destruction"
    PERFORMER "Mindless Faith"
    INDEX 01 32:15:20
  TRACK 08 AUDIO
    TITLE "Indiscriminate Force"
    PERFORMER "Mindless Faith"
    INDEX 01 36:21:03
  TRACK 09 AUDIO
    TITLE "You Don't Know"
    PERFORMER "Mindless Faith"
    INDEX 01 38:24:51
  TRACK 10 AUDIO
    TITLE "Undone"
    PERFORMER "Mindless Faith"
    INDEX 01 42:58:35
  TRACK 11 AUDIO
    TITLE "Vultures (let Us Prey Mix)"
    PERFORMER "Mindless Faith"
    INDEX 01 48:15:46
Код:
[url=https://fastpic.ru/view/33/2012/0405/96f6bd14867c5113400fbd5ea7bbcc5d.jpg.html][img]http://i33.fastpic.ru/thumb/2012/0405/5d/96f6bd14867c5113400fbd5ea7bbcc5d.jpeg[/img][/url][url=https://fastpic.ru/view/28/2012/0405/2db2c78f4fae41f83e5262f9e99f44ef.jpg.html][img]http://i28.fastpic.ru/thumb/2012/0405/ef/2db2c78f4fae41f83e5262f9e99f44ef.jpeg[/img][/url][url=https://fastpic.ru/view/35/2012/0405/279fcc8438720a5e6d7ec808e6a1778f.jpg.html][img]http://i35.fastpic.ru/thumb/2012/0405/8f/279fcc8438720a5e6d7ec808e6a1778f.jpeg[/img][/url][url=https://fastpic.ru/view/28/2012/0405/8ee7a77f17cf9d205a6356ebfab47a69.jpg.html][img]http://i28.fastpic.ru/thumb/2012/0405/69/8ee7a77f17cf9d205a6356ebfab47a69.jpeg[/img][/url]
Правила, инструкции, FAQ!!!
Торрент  Добавлен [26 июн 2020, 19:47] Скачать торрент Магнет ссылка
Скачать торрент
[ Размер 17.04 КБ / Просмотров 9 ]

Статус
Проверен 
 
Размер  407.78 МБ
Приватный: Нет (DHT включён)
.torrent скачан  0
 


     Отправить личное сообщение
   
Страница 1 из 1
Показать сообщения за:  Поле сортировки  
Начать новую тему Ответить на тему


Сейчас этот форум просматривают: нет зарегистрированных пользователей и гости: 0


Вы не можете начинать темы
Вы не можете отвечать на сообщения
Вы не можете редактировать свои сообщения
Вы не можете удалять свои сообщения
Вы не можете добавлять вложения

Перейти:  
cron