Начать новую тему Ответить на тему
Статистика раздачи
Размер: 316.91 МБ | Добавлен: 26 июн 2020, 17:20 | Скачали: 0
Сидеров: 0  [0 байт/сек]    Личеров: 0  [0 байт/сек]
Пред. тема | След. тема 

Автор
Сообщение

СообщениеДобавлено: 26 июн 2020, 17:20 

Ответить с цитатой 

Megadump - Feed Me, Fuck Me, Kill Me!
Жанр: Electro, Industrial
Год выпуска диска: 2000
Производитель диска: Germany
Аудио кодек: FLAC
Тип рипа: image+.cue
Битрейт аудио: lossless
Продолжительность: 00:38:46
Трэклист:
1. Zölibat 4:08
2. Shockwave 4:42
3. Keine Gnade 4:34
4. Testosteron 4:51
5. Borderline 4:54
6. Zölibat (Big B Mix) 6:05
7. Borderline (Remix by Sin City Music) 3:37
8. Zölibat (Remix by Plastic) 5:37
Код:
Exact Audio Copy V0.99 prebeta 5 from 4. May 2009
Отчёт EAC об извлечении, выполненном 18. ноября 2009, 13:27
Megadump / feed me, fuck me, kill me!
Дисковод: Optiarc DVD RW AD-7201S   Adapter: 2  ID: 1
Режим чтения                 : Достоверность
Использование точного потока : Да
Отключение кэша аудио        : Да
Использование указателей C2  : Нет
Коррекция смещения при чтении                     : 48
Способность читать области Lead-in и Lead-out     : Нет
Заполнение пропущенных сэмплов тишиной            : Да
Удаление блоков с тишиной в начале и конце        : Нет
При вычислениях CRC использовались нулевые сэмплы : Да
Интерфейс                                         : Встроенный Win32-интерфейс для Win NT/2000
Выходной формат : Внутренние WAV-операции
Формат сэмплов  : 44.100 Гц; 16 бит; стерео
TOC извлечённого CD
     Трек |   Старт  | Длительность | Начальный сектор | Конечный сектор
    ---------------------------------------------------------------------
       1  |  0:00.00 |    4:10.28   |           0      |      18777
       2  |  4:10.28 |    4:44.53   |       18778      |      40130
       3  |  8:55.06 |    4:36.22   |       40131      |      60852
       4  | 13:31.28 |    4:53.28   |       60853      |      82855
       5  | 18:24.56 |    4:56.31   |       82856      |     105086
       6  | 23:21.12 |    6:07.72   |      105087      |     132683
       7  | 29:29.09 |    3:39.07   |      132684      |     149115
       8  | 33:08.16 |    5:37.40   |      149116      |     174430
Характеристики диапазона извлечения и сообщения об ошибках
Выбранный диапазон
     Имя файла E:\Раздачи\Megadump-feed me, fuck me, kill me!\Megadump - feed me, fuck me, kill me!.wav
     Пиковый уровень 99.9 %
     Качество диапазона 100.0 %
     CRC теста 4B2F8DCC
     CRC копии 4B2F8DCC
     Копирование... OK
Ошибок не произошло
Конец отчёта
 
Код:
Started at: среда, 18. 11. 2009. - 13:37.56
1 file found
1 -===- E:\Раздачи\Megadump-feed me, fuck me, kill me!\Megadump - feed me, fuck me, kill me!.flac
  Extracted successfully
  Conclusion: this track is CDDA with probability 99%
  Tempfile successfully deleted.
Finished at: среда, 18. 11. 2009. - 13:42.10 (operation time: 0:04.14)
abel:Accession Records
Catalog#:A 022
Format:CD
Country:Germany
Released:17 Nov 2000
Genre:Electronic
Style:Techno, Industrial

HQ Scans Full Complete
Правила, инструкции, FAQ!!!
Торрент  Добавлен [26 июн 2020, 17:20] Скачать торрент Магнет ссылка
Скачать торрент
[ Размер 13.3 КБ / Просмотров 15 ]

Статус
Проверен 
 
Размер  316.91 МБ
Приватный: Нет (DHT включён)
.torrent скачан  0
 


     Отправить личное сообщение
   
Страница 1 из 1
Показать сообщения за:  Поле сортировки  
Начать новую тему Ответить на тему


Сейчас этот форум просматривают: нет зарегистрированных пользователей и гости: 0


Вы не можете начинать темы
Вы не можете отвечать на сообщения
Вы не можете редактировать свои сообщения
Вы не можете удалять свои сообщения
Вы не можете добавлять вложения

Перейти:  
cron