Начать новую тему Ответить на тему
Статистика раздачи
Размер: 365.2 МБ | Добавлен: 26 июн 2020, 19:50 | Скачали: 0
Сидеров: 0  [0 байт/сек]    Личеров: 0  [0 байт/сек]
Пред. тема | След. тема 

Автор
Сообщение

СообщениеДобавлено: 26 июн 2020, 19:50 

Ответить с цитатой 

Liquid Divine - Interface
Жанр: Electro, Industrial
Год выпуска диска: 2005
Производитель диска: Германия
Аудио кодек: FLAC
Тип рипа: image+.cue
Битрейт аудио: lossless
Продолжительность: 56:51.66
Трэклист:
01. Prognosis
02. Remember Tomorrow
03. Kaleidoscope
04. Something Trivial
05. Introspective
06. Broadcast
07. Ephemeral
08. 9 To5
09. Genotype
10. Low Life Complex
11. Lotus
12. Your Traces
13. Hidkorrektur
Exact Audio Copy V0.99 prebeta 4 from 23. January 2008
Отчёт EAC об извлечении, выполненном 8. сентября 2008, 14:07
Liquid Divine / Interface
Дисковод: PIONEER DVD-RW DVR-111D Adapter: 0 ID: 0
Режим чтения : Достоверность
Использование точного потока : Да
Отключение кэша аудио : Да
Использование указателей C2 : Нет
Коррекция смещения при чтении : 48
Способность читать области Lead-in и Lead-out : Нет
Заполнение пропущенных сэмплов тишиной : Да
Удаление блоков с тишиной в начале и конце : Нет
При вычислениях CRC использовались нулевые сэмплы : Да
Интерфейс : Встроенный Win32-интерфейс для Win NT/2000
Выходной формат : Пользовательский кодировщик
Выбранный битрейт : 1024 kBit/s
Качество : Высокий
Добавление ID3-тэга : Нет
Утилита сжатия : C:\Program Files\Exact Audio Copy\FLAC\FLAC.EXE
Дополнительные параметры : -8 -V -T "ARTIST=%a" -T "TITLE=%t" -T "ALBUM=%g" -T "DATE=%y" -T "TRACKNUMBER=%n" -T "GENRE=%m" -T "COMMENT=%e" %s -o %d
TOC извлечённого CD
Трек | Старт | Длительность | Начальный сектор | Конечный сектор
---------------------------------------------------------------------
1 | 0:00.00 | 1:15.47 | 0 | 5671
2 | 1:15.47 | 5:16.53 | 5672 | 29424
3 | 6:32.25 | 5:38.61 | 29425 | 54835
4 | 12:11.11 | 5:30.44 | 54836 | 79629
5 | 17:41.55 | 4:53.53 | 79630 | 101657
6 | 22:35.33 | 5:22.50 | 101658 | 125857
7 | 27:58.08 | 6:11.23 | 125858 | 153705
8 | 34:09.31 | 4:29.06 | 153706 | 173886
9 | 38:38.37 | 4:04.16 | 173887 | 192202
10 | 42:42.53 | 5:29.46 | 192203 | 216923
11 | 48:12.24 | 4:38.42 | 216924 | 237815
12 | 52:50.66 | 4:01.00 | 237816 | 255890
13 | 56:51.66 | 3:14.31 | 255891 | 270471
Характеристики диапазона извлечения и сообщения об ошибках
Выбранный диапазон
Имя файла D:\123\t\Liquid Divine - Interface [2005]\Liquid Divine - Interface.wav
Пиковый уровень 100.0 %
Качество диапазона 100.0 %
CRC теста 52C53779
CRC копии 52C53779
Копирование... OK
Ошибок не произошло
AccurateRip: сводка
Трек 1 точное извлечение (доверие 2) [70E406E8]
Трек 2 точное извлечение (доверие 2) [98E7ED2A]
Трек 3 точное извлечение (доверие 2) [5CA4764B]
Трек 4 точное извлечение (доверие 2) [FF6829C9]
Трек 5 точное извлечение (доверие 2) [6C99C277]
Трек 6 точное извлечение (доверие 2) [2E825433]
Трек 7 точное извлечение (доверие 2) [64AF00A7]
Трек 8 точное извлечение (доверие 2) [9EF1BC54]
Трек 9 точное извлечение (доверие 2) [4DAD670A]
Трек 10 точное извлечение (доверие 2) [40593B85]
Трек 11 точное извлечение (доверие 2) [D9994A0C]
Трек 12 точное извлечение (доверие 2) [8B208D1E]
Трек 13 точное извлечение (доверие 2) [15B6E1C3]
Все треки извлечены точно
Конец отчёта
AUDIOCHECKER v2.0 beta (build 457) - by Dester - opdester@freemail.hu
~~~~~~~~~~~~~~~~~~~~~~~~~~~~~~~~~~
-=== DO NOT EDIT THIS FILE! ===-
Path: ...\Liquid Divine - Interface [2005]
1 -=- Liquid Divine - Interface.flac -=- CDDA (100%)
242567124
Доп. информация: Германский дуэт LIQUID DIVINE дебютировал на лейбле Infacted Recordings очень увлекательным по звучанию и футуристическим по духу альбомом "Interface". Christian Fritzsche и Guido Stoye сразу заняли особое место среди других команд своего лейбла, в основном нацеленных на быстрое и жесткое клубное звучание. В песнях немцев много гладких и чувственных синтезаторных мелодий, также часто используются массивные пространственные вокодеры а-ля KRAFTWERK (хотя мужской голос в чистом виде также звучит органично и гипнотизирующе), плотные последовательности юрких битов и экспериментальные drum-n-bass структуры.
Информация взята с http://www.machinistmusic.net/reviews/liquiddivine2005.html
Правила, инструкции, FAQ!!!
Торрент  Добавлен [26 июн 2020, 19:50] Скачать торрент Магнет ссылка
Скачать торрент
[ Размер 14.94 КБ / Просмотров 7 ]

Статус
Проверен 
 
Размер  365.2 МБ
Приватный: Нет (DHT включён)
.torrent скачан  0
 


     Отправить личное сообщение
   
Страница 1 из 1
Показать сообщения за:  Поле сортировки  
Начать новую тему Ответить на тему


Сейчас этот форум просматривают: нет зарегистрированных пользователей и гости: 0


Вы не можете начинать темы
Вы не можете отвечать на сообщения
Вы не можете редактировать свои сообщения
Вы не можете удалять свои сообщения
Вы не можете добавлять вложения

Перейти:  
cron