Начать новую тему Ответить на тему
Статистика раздачи
Размер: 450.84 МБ | Добавлен: 26 июн 2020, 19:54 | Скачали: 0
Сидеров: 0  [0 байт/сек]    Личеров: 0  [0 байт/сек]
Пред. тема | След. тема 

Автор
Сообщение

СообщениеДобавлено: 26 июн 2020, 19:54 

Ответить с цитатой 

Liquid Divine - Black Box
Жанр: Electro, Industrial
Год выпуска диска: 2007
Производитель диска: Германия
Аудио кодек: FLAC
Тип рипа: image+.cue
Битрейт аудио: lossless
Продолжительность: 58:59.22
Трэклист:
01. Panic мoice
02. Click
03. Pathfinder
04. Technocracy
05. At any time
06. Satellites
07. Hope:less
08. Beaking news
09. Fortune and fame
10. Sleepwalk
11. Dividing lines
12. Overwritten
Exact Audio Copy V0.99 prebeta 4 from 23. January 2008
Отчёт EAC об извлечении, выполненном 8. сентября 2008, 16:22
Liquid Divine / Black Box
Дисковод: PIONEER DVD-RW DVR-111D Adapter: 0 ID: 0
Режим чтения : Достоверность
Использование точного потока : Да
Отключение кэша аудио : Да
Использование указателей C2 : Нет
Коррекция смещения при чтении : 48
Способность читать области Lead-in и Lead-out : Нет
Заполнение пропущенных сэмплов тишиной : Да
Удаление блоков с тишиной в начале и конце : Нет
При вычислениях CRC использовались нулевые сэмплы : Да
Интерфейс : Встроенный Win32-интерфейс для Win NT/2000
Выходной формат : Пользовательский кодировщик
Выбранный битрейт : 1024 kBit/s
Качество : Высокий
Добавление ID3-тэга : Нет
Утилита сжатия : C:\Program Files\Exact Audio Copy\FLAC\FLAC.EXE
Дополнительные параметры : -8 -V -T "ARTIST=%a" -T "TITLE=%t" -T "ALBUM=%g" -T "DATE=%y" -T "TRACKNUMBER=%n" -T "GENRE=%m" -T "COMMENT=%e" %s -o %d
TOC извлечённого CD
Трек | Старт | Длительность | Начальный сектор | Конечный сектор
---------------------------------------------------------------------
1 | 0:00.00 | 5:05.43 | 0 | 22917
2 | 5:05.43 | 5:03.01 | 22918 | 45643
3 | 10:08.44 | 5:45.67 | 45644 | 71585
4 | 15:54.36 | 5:16.29 | 71586 | 95314
5 | 21:10.65 | 6:06.34 | 95315 | 122798
6 | 27:17.24 | 5:00.28 | 122799 | 145326
7 | 32:17.52 | 5:43.57 | 145327 | 171108
8 | 38:01.34 | 6:41.05 | 171109 | 201188
9 | 44:42.39 | 4:23.18 | 201189 | 220931
10 | 49:05.57 | 5:08.44 | 220932 | 244075
11 | 54:14.26 | 4:44.71 | 244076 | 265446
12 | 58:59.22 | 6:43.50 | 265447 | 295721
Характеристики диапазона извлечения и сообщения об ошибках
Выбранный диапазон
Имя файла D:\123\t\Liquid Divine - Black Box [2007]\Liquid Divine - Black Box.wav
Пиковый уровень 98.8 %
Качество диапазона 100.0 %
CRC теста 8BF3FA8F
CRC копии 8BF3FA8F
Копирование... OK
Ошибок не произошло
AccurateRip: сводка
Трек 1 точность не определена (достоверность 1) [540DE498], AccurateRip вернул [0FEA6428]
Трек 2 точность не определена (достоверность 1) [52CD1431], AccurateRip вернул [C4545C81]
Трек 3 точность не определена (достоверность 1) [C6DE3FCC], AccurateRip вернул [D8429EAC]
Трек 4 точность не определена (достоверность 1) [F0D0CFB7], AccurateRip вернул [88DFB667]
Трек 5 точность не определена (достоверность 1) [BF0466C3], AccurateRip вернул [660426F3]
Трек 6 точность не определена (достоверность 1) [4B4ECCFB], AccurateRip вернул [A915FADB]
Трек 7 точность не определена (достоверность 1) [EE8914F4], AccurateRip вернул [6E8C05CC]
Трек 8 точность не определена (достоверность 1) [EB0F77AE], AccurateRip вернул [BEDA25CE]
Трек 9 точность не определена (достоверность 1) [55E3BE1E], AccurateRip вернул [9BEA6576]
Трек 10 точность не определена (достоверность 1) [464BB5D7], AccurateRip вернул [FD339D27]
Трек 11 точность не определена (достоверность 1) [7FA3337A], AccurateRip вернул [E5CEE3AA]
Трек 12 точность не определена (достоверность 1) [3F9EF7BA], AccurateRip вернул [0E0445FA]
Ни один трек не прошёл проверки на точность
В вашей базе может быть иной вариант штамповки диска
Конец отчёта
AUDIOCHECKER v2.0 beta (build 457) - by Dester - opdester@freemail.hu
~~~~~~~~~~~~~~~~~~~~~~~~~~~~~~~~~~
-=== DO NOT EDIT THIS FILE! ===-
Path: ...\Liquid Divine - Black Box [2007]
1 -=- Liquid Divine - Black Box.flac -=- CDDA (100%)
96486996
Доп. информация: На своем втором альбоме немецкая группа LIQUID DIVINE ожидаемо сделала большой шаг навстречу мелодичному, креативному и комплексному intelligent электро-ЕВМ. Очевидно, что звучание LIQUID DIVINE стало более мрачным, сфокусированным на ритмах, песенноориентированным по части структур и использованию вокалов, энергичным и разносторонним. Опять же, насыщенные разнообразными синтетическими звуками, спецэффектами, сэмплами, гипнотизирующими вокалами и вокодерами, активными пульсациями, битами и брейкбитами, красивыми струнными переборами и мрачноватыми эмбиентными мелодиями аранжировки треков LIQUID DIVINE выглядят очень умными, полиритмичными, прогрессивными и инновативными, особенно на контрасте с клубноориентированной дарк электро/future pop/ЕВМ продукцией материнской компании Infacted Recordings и популярных лейблов Alfa Matrix, Out Of Line, Accession Records.
Информация взята с http://www.machinistmusic.net/reviews/liquiddivinecd2007.html
Правила, инструкции, FAQ!!!
Торрент  Добавлен [26 июн 2020, 19:54] Скачать торрент Магнет ссылка
Скачать торрент
[ Размер 18.28 КБ / Просмотров 12 ]

Статус
Проверен 
 
Размер  450.84 МБ
Приватный: Нет (DHT включён)
.torrent скачан  0
 


     Отправить личное сообщение
   
Страница 1 из 1
Показать сообщения за:  Поле сортировки  
Начать новую тему Ответить на тему


Сейчас этот форум просматривают: нет зарегистрированных пользователей и гости: 0


Вы не можете начинать темы
Вы не можете отвечать на сообщения
Вы не можете редактировать свои сообщения
Вы не можете удалять свои сообщения
Вы не можете добавлять вложения

Перейти:  
cron